<?xml version="1.0" standalone="no"?>
<!DOCTYPE svg PUBLIC "-//W3C//DTD SVG 1.1//EN" "http://www.w3.org/Graphics/SVG/1.1/DTD/svg11.dtd" >
<!--
2016-2-19: Created.
-->
<svg xmlns="http://www.w3.org/2000/svg">
<metadata>
Created by FontForge 20120731 at Fri Feb 19 14:50:13 2016
 By root
Created by root with FontForge 2.0 (http://fontforge.sf.net)
</metadata>
<defs>
<font id="Flaticon" horiz-adv-x="512" >
  <font-face 
    font-family="Flaticon"
    font-weight="500"
    font-stretch="normal"
    units-per-em="512"
    panose-1="2 0 6 3 0 0 0 0 0 0"
    ascent="448"
    descent="-64"
    bbox="-0.177414 -64 512.002 448"
    underline-thickness="25.6"
    underline-position="-51.2"
    unicode-range="U+0020-F131"
  />
    <missing-glyph />
    <glyph glyph-name="space" unicode=" " horiz-adv-x="200" 
 />
    <glyph glyph-name="uniF131" unicode="&#xf131;" 
d="M495.89 371.702c10.9766 -2.3252 17.9902 -13.1094 15.665 -24.0869l-67.7236 -319.657c-1.98926 -9.38965 -10.2783 -16.1064 -19.876 -16.1064h-335.91c-9.59766 0 -17.8857 6.7168 -19.876 16.1064l-67.7236 319.657c-2.3252 10.9775 4.68848 21.7617 15.666 24.0869
c10.9785 2.32422 21.7607 -4.68652 24.0869 -15.6641l5.75684 -27.1709c13.7002 -1.20703 22.4365 -4.16113 30.3369 -6.84668c8.62793 -2.93457 15.4443 -5.25 30.709 -5.25c15.2637 0 22.0781 2.31738 30.7061 5.25c10.2207 3.47559 21.8047 7.41309 43.7891 7.41309
c21.9824 0 33.5664 -3.9375 43.7871 -7.41309c8.62793 -2.93457 15.4434 -5.25 30.709 -5.25s22.082 2.31543 30.7109 5.25c10.2207 3.47363 21.8057 7.41113 43.7891 7.41113s33.5684 -3.9375 43.7891 -7.41113c8.63086 -2.93457 15.4463 -5.25 30.7148 -5.25
c15.2666 0 22.082 2.31543 30.7119 5.25c7.89941 2.68555 16.6367 5.63965 30.3389 6.84668l5.75586 27.1709c2.32617 10.9766 13.1104 17.9883 24.0869 15.6641zM407.491 52.4873l49.5059 233.668c-2.78027 -0.765625 -5.40234 -1.65234 -8.21289 -2.60938
c-10.2197 -3.47363 -21.8047 -7.41113 -43.7891 -7.41113c-21.9863 0 -33.5723 3.93848 -43.793 7.41309c-8.62891 2.93262 -15.4453 5.25 -30.7109 5.25s-22.0811 -2.31738 -30.7109 -5.25c-10.2207 -3.47559 -21.8057 -7.41309 -43.79 -7.41309
c-21.9824 0 -33.5664 3.93848 -43.7871 7.41309c-8.62793 2.93262 -15.4434 5.25 -30.709 5.25s-22.0801 -2.31641 -30.71 -5.25c-10.2197 -3.47461 -21.8027 -7.41211 -43.7842 -7.41211c-21.9834 0 -33.5674 3.93945 -43.7881 7.41309
c-2.80859 0.955078 -5.42969 1.84375 -8.20898 2.60938l49.5059 -233.671h302.982zM188.276 191.999c0 18.0592 9.02995 27.0889 27.0898 27.0889c18.0592 0 27.0889 -9.02962 27.0889 -27.0889c0 -18.0599 -9.02962 -27.0898 -27.0889 -27.0898
c-18.0599 0 -27.0898 9.02995 -27.0898 27.0898zM269.545 191.999c0 18.0592 9.02994 27.0889 27.0898 27.0889c18.0592 0 27.0889 -9.02962 27.0889 -27.0889c0 -18.0599 -9.02963 -27.0898 -27.0889 -27.0898c-18.0599 0 -27.0898 9.02995 -27.0898 27.0898z" />
    <glyph glyph-name="uniF121" unicode="&#xf121;" 
d="M256 -4.92285c-108.583 0 -196.923 88.3398 -196.923 196.923s88.3398 196.923 196.923 196.923s196.923 -88.3398 196.923 -196.923s-88.3398 -196.923 -196.923 -196.923zM256 349.538c-86.8682 0 -157.538 -70.6709 -157.538 -157.538
s70.6709 -157.538 157.538 -157.538s157.538 70.6709 157.538 157.538s-70.6709 157.538 -157.538 157.538zM492.308 448c10.876 0 19.6924 -8.81641 19.6924 -19.6924v-472.615c0 -10.876 -8.81641 -19.6924 -19.6924 -19.6924h-472.615
c-10.875 0 -19.6924 8.81641 -19.6924 19.6924v472.615c0 10.876 8.81738 19.6924 19.6924 19.6924h472.615zM472.615 -24.6152v433.23h-433.23v-433.23h433.23zM223.18 192c0 21.8802 10.9401 32.8203 32.8203 32.8203c21.8802 0 32.8203 -10.9401 32.8203 -32.8203
s-10.9401 -32.8203 -32.8203 -32.8203c-21.8802 0 -32.8203 10.9401 -32.8203 32.8203z" />
    <glyph glyph-name="uniF109" unicode="&#xf109;" 
d="M495.89 401.274c10.9766 -2.3252 17.9902 -13.1084 15.665 -24.0869l-67.7236 -319.656c-1.98926 -9.38867 -10.2783 -16.1055 -19.876 -16.1055h-335.91c-9.59766 0 -17.8867 6.7168 -19.876 16.1055l-67.7236 319.656c-2.32715 10.9785 4.68848 21.7617 15.665 24.0869
c10.9863 2.32617 21.7617 -4.6875 24.0869 -15.6641l5.75586 -27.1709c13.7012 -1.20703 22.4385 -4.16113 30.3379 -6.84668c8.62793 -2.93457 15.4424 -5.25 30.709 -5.25c15.2627 0 22.0771 2.31738 30.7051 5.25c10.2217 3.47363 21.8066 7.41309 43.791 7.41309
c21.9814 0 33.5664 -3.9375 43.7871 -7.41309c8.62793 -2.93457 15.4434 -5.25 30.709 -5.25c15.2676 0 22.083 2.31543 30.7129 5.25c10.2188 3.47363 21.8037 7.41113 43.7861 7.41113s33.5674 -3.9375 43.7881 -7.41113c8.63086 -2.93457 15.4482 -5.25 30.7158 -5.25
s22.083 2.31543 30.7129 5.25c7.90039 2.68555 16.6367 5.63965 30.3389 6.84668l5.75586 27.1709c2.3252 10.9756 13.0938 17.9912 24.0869 15.6641zM407.491 82.0596l49.5059 233.669c-2.78027 -0.766602 -5.40234 -1.65332 -8.21289 -2.61035
c-10.2217 -3.47363 -21.8057 -7.41113 -43.7891 -7.41113c-21.9844 0 -33.5713 3.93848 -43.792 7.41309c-8.62891 2.93262 -15.4463 5.25 -30.7119 5.25s-22.0811 -2.31738 -30.709 -5.25c-10.2207 -3.47559 -21.8047 -7.41309 -43.79 -7.41309
c-21.9824 0 -33.5674 3.93848 -43.7881 7.41309c-8.62793 2.93262 -15.4424 5.25 -30.708 5.25c-15.2676 0 -22.084 -2.31641 -30.7119 -5.25c-10.2207 -3.47461 -21.8027 -7.41211 -43.7842 -7.41211c-21.9824 0 -33.5674 3.93945 -43.7881 7.41309
c-2.81055 0.955078 -5.43164 1.84375 -8.21094 2.60938l49.5078 -233.671h302.982zM195.86 231.729c36.3428 0 58.9189 -22.9668 58.9189 -59.9326v-2.03223c0 -36.9688 -22.9658 -59.9336 -59.9355 -59.9336c-29.8311 0 -59.9326 20.1025 -59.9326 65.0127v2.03223
c0 30.8291 7.97266 56.4775 24.3711 78.4092c20.6162 27.5703 53.9287 37.3945 78.2275 37.3945c5.6123 0 10.1592 -4.54883 10.1592 -10.1592v-8.12598c0 -5.61035 -4.54688 -10.1592 -10.1592 -10.1592c-17.0107 0 -40.4102 -6.94141 -55.0664 -26.4229
c-2.13379 -2.84473 -4.09961 -5.84375 -5.89453 -8.98828c6.04785 1.91504 12.5283 2.90527 19.3115 2.90527zM195.456 138.273c19.9355 0 30.4736 10.6787 30.4736 30.8818v3.24902c0 19.9141 -10.4619 30.8809 -29.458 30.8809h-1.21875
c-13.7285 0 -25.457 -6.88281 -31.709 -18.5049c-0.1875 -2.58496 -0.1875 -5.28223 -0.1875 -7.90527v-2.03223c0 -21.873 12.4102 -36.5693 30.8809 -36.5693h1.21875zM319.795 292.678c36.4102 0 57.293 -21.1035 57.293 -57.9023v-67.0439
c0 -36.7979 -20.8828 -57.9023 -57.293 -57.9023c-36.4111 0 -57.293 21.1055 -57.293 57.9023v67.0439c0 36.7988 20.8818 57.9023 57.293 57.9023zM320.404 137.867c20.2881 0 27.833 8.64551 27.833 31.8965v62.9805c0 23.252 -7.54297 31.8965 -27.833 31.8965h-1.21973
c-20.29 0 -27.833 -8.64453 -27.833 -31.8965v-62.9805c0 -23.252 7.54297 -31.8965 27.833 -31.8965h1.21973zM219.427 22.9141c11.2197 0 20.3164 -9.09668 20.3164 -20.3174s-9.09668 -20.3174 -20.3164 -20.3174h-89.3906c-11.2197 0 -20.3164 9.09668 -20.3164 20.3174
s9.09668 20.3174 20.3164 20.3174h89.3906zM381.964 22.9141c11.2197 0 20.3164 -9.09668 20.3164 -20.3174s-9.09668 -20.3174 -20.3164 -20.3174h-89.3906c-11.2197 0 -20.3164 9.09668 -20.3164 20.3174s9.09668 20.3174 20.3164 20.3174h89.3906z" />
    <glyph glyph-name="uniF116" unicode="&#xf116;" 
d="M495.89 371.702c10.9766 -2.3252 17.9902 -13.1094 15.665 -24.0869l-67.7236 -319.656c-1.98926 -9.38867 -10.2783 -16.1055 -19.876 -16.1055h-335.91c-9.59766 0 -17.8867 6.7168 -19.876 16.1055l-67.7236 319.656c-2.32715 10.9775 4.68848 21.7617 15.665 24.0869
c10.9883 2.32617 21.7637 -4.6875 24.0869 -15.6641l5.75586 -27.1709c13.7012 -1.20703 22.4385 -4.16113 30.3379 -6.84668c8.62793 -2.93457 15.4424 -5.25 30.709 -5.25c15.2627 0 22.0771 2.31543 30.7051 5.25c10.2217 3.47559 21.8066 7.41309 43.7891 7.41309
s33.5664 -3.93945 43.7881 -7.41309c8.62793 -2.93457 15.4434 -5.25 30.708 -5.25c15.2676 0 22.084 2.31543 30.7129 5.25c10.2197 3.47363 21.8047 7.41113 43.7881 7.41113c21.9824 0 33.5674 -3.9375 43.7881 -7.41113c8.63086 -2.93457 15.4482 -5.25 30.7158 -5.25
s22.083 2.31543 30.7129 5.25c7.90039 2.68555 16.6367 5.63965 30.3389 6.84668l5.75586 27.1709c2.3252 10.9756 13.0928 17.9912 24.0869 15.6641zM407.491 52.4873l49.5059 233.669c-2.78027 -0.766602 -5.40234 -1.65332 -8.21289 -2.61035
c-10.2207 -3.47363 -21.8057 -7.41113 -43.7891 -7.41113c-21.9844 0 -33.5703 3.93848 -43.792 7.41309c-8.62891 2.93262 -15.4463 5.25 -30.7119 5.25c-15.2666 0 -22.082 -2.31738 -30.7109 -5.25c-10.2217 -3.47559 -21.8066 -7.41309 -43.79 -7.41309
c-21.9814 0 -33.5664 3.93848 -43.7871 7.41309c-8.62793 2.93262 -15.4424 5.25 -30.709 5.25c-15.2656 0 -22.082 -2.31738 -30.71 -5.25195c-10.2207 -3.47363 -21.8027 -7.41113 -43.7842 -7.41113c-21.9824 0 -33.5674 3.93848 -43.7881 7.41309
c-2.81055 0.955078 -5.43164 1.84277 -8.21094 2.6084l49.5078 -233.669h302.982zM228.91 191.999c0 18.0592 9.02995 27.0889 27.0898 27.0889c18.0599 0 27.0898 -9.02962 27.0898 -27.0889c0 -18.0599 -9.02994 -27.0898 -27.0898 -27.0898
c-18.0599 0 -27.0898 9.02995 -27.0898 27.0898z" />
    <glyph glyph-name="uniF12B" unicode="&#xf12b;" 
d="M256 448c122.746 0 222.608 -99.8623 222.608 -222.608c0 -122.747 -99.8623 -222.609 -222.608 -222.609s-222.608 99.8623 -222.608 222.609c0 122.746 99.8623 222.608 222.608 222.608zM256 47.3047c98.1973 0 178.087 79.8896 178.087 178.087
s-79.8896 178.087 -178.087 178.087s-178.087 -79.8896 -178.087 -178.087s79.8896 -178.087 178.087 -178.087zM322.829 336.121c12.4004 -9.21094 27.1797 -27.2354 27.1787 -60.7881v-5.70312c0 -33.5537 -14.7803 -51.5771 -27.1787 -60.7891
c-17.1475 -12.7422 -38.1406 -15.416 -52.7305 -15.416h-31.3955v-79.3379c0 -8.19629 -6.64551 -14.8408 -14.8408 -14.8408h-11.4131c-8.19531 0 -14.8408 6.64453 -14.8408 14.8408v222.608c0 8.19531 6.64551 14.8408 14.8408 14.8408h57.6494
c14.5898 0 35.583 -2.67383 52.7305 -15.415zM308.343 270.196v4.56641c0 15.5605 -3.96387 36.2471 -38.2441 36.2471h-31.3936v-77.0596h31.3936c34.2803 0 38.2441 20.6875 38.2441 36.2461zM304.971 -19.4785c12.2939 0 22.2607 -9.9668 22.2607 -22.2607
s-9.9668 -22.2607 -22.2607 -22.2607h-97.9414c-12.2939 0 -22.2607 9.9668 -22.2607 22.2607s9.9668 22.2607 22.2607 22.2607h97.9414z" />
    <glyph glyph-name="uniF129" unicode="&#xf129;" 
d="M511.331 78.415c0.435547 -1.6084 0.668945 -3.2998 0.667969 -5.0459c0 -10.6025 -8.59668 -19.1992 -19.1992 -19.1992h-0.0253906h-473.577c-6.6748 0 -12.8701 3.46777 -16.3623 9.15723c-3.49121 5.68848 -3.77832 12.7832 -0.754883 18.7354
c0.759766 1.49902 19.0391 37.1006 54.4199 72.8359c47.7471 48.2227 104.111 73.7129 163.001 73.7129h221.173l-12.1348 62.8223h-198.317c-10.6025 0 -19.1982 8.5957 -19.1982 19.1982c0 10.6035 8.5957 19.1992 19.1982 19.1992h214.163
c9.2002 0 17.1064 -6.52539 18.8506 -15.5576l21.293 -110.222zM54.0078 92.5684h415.041l-20.8311 97.6445h-228.714c-48.7754 0 -94.1748 -20.708 -134.938 -61.5479c-12.5967 -12.6201 -22.8184 -25.3506 -30.5586 -36.0967zM245.748 141.39
c0 17.0664 8.53288 25.5996 25.5986 25.5996c17.0658 0 25.5986 -8.5332 25.5986 -25.5996c0 -17.0658 -8.53287 -25.5986 -25.5986 -25.5986c-17.0658 0 -25.5986 8.53288 -25.5986 25.5986z" />
    <glyph glyph-name="uniF12A" unicode="&#xf12a;" 
d="M256 448c141.158 0 256 -114.842 256 -256s-114.842 -256 -256 -256s-256 114.842 -256 256s114.842 256 256 256zM256 -12.7998c112.927 0 204.8 91.873 204.8 204.8s-91.873 204.8 -204.8 204.8s-204.8 -91.873 -204.8 -204.8s91.873 -204.8 204.8 -204.8z
M332.853 319.34c14.2617 -10.5938 31.2578 -31.3213 31.2559 -69.9072v-6.55859c0 -38.5859 -16.9961 -59.3135 -31.2559 -69.9072c-19.7188 -14.6533 -43.8613 -17.7285 -60.6396 -17.7285h-36.1045v-91.2383c0 -9.42578 -7.6416 -17.0664 -17.0664 -17.0664h-13.126
c-9.42383 0 -17.0664 7.64062 -17.0664 17.0664v256c0 9.42383 7.64258 17.0664 17.0664 17.0664h66.2969c16.7783 0 40.9209 -3.0752 60.6396 -17.7266zM316.194 243.526v5.25098c0 17.8945 -4.55859 41.6836 -43.9814 41.6836h-36.1025v-88.6182h36.1025
c39.4229 0 43.9814 23.79 43.9814 41.6836z" />
    <glyph glyph-name="uniF130" unicode="&#xf130;" 
d="M495.89 402.626c10.9766 -2.3252 17.9902 -13.1094 15.665 -24.0859l-67.7236 -319.656c-1.98926 -9.38965 -10.2783 -16.1064 -19.876 -16.1064h-335.91c-9.59766 0 -17.8857 6.7168 -19.876 16.1064l-67.7236 319.656c-2.3252 10.9766 4.68848 21.7607 15.6631 24.0859
c10.9746 2.32617 21.7617 -4.68652 24.0869 -15.6641l5.75684 -27.1709c13.7002 -1.20703 22.4365 -4.16113 30.3359 -6.84668c8.62988 -2.93359 15.4443 -5.25 30.71 -5.25c15.2646 0 22.0791 2.31738 30.707 5.25c10.2217 3.47559 21.8047 7.41309 43.7891 7.41309
c21.9834 0 33.5664 -3.93945 43.7881 -7.41309c8.62793 -2.93359 15.4434 -5.25 30.708 -5.25c15.2666 0 22.082 2.31641 30.7119 5.25c10.2207 3.47363 21.8057 7.41113 43.7891 7.41113c21.9844 0 33.5693 -3.9375 43.79 -7.41113
c8.62891 -2.93359 15.4463 -5.25 30.7139 -5.25s22.083 2.31641 30.7129 5.25c7.90039 2.68555 16.6367 5.63965 30.3389 6.84668l5.75586 27.1709c2.32617 10.9766 13.1104 17.9893 24.0869 15.6641zM407.491 83.4121l49.5078 233.668
c-2.78223 -0.766602 -5.40332 -1.65332 -8.21387 -2.6084c-10.2217 -3.47559 -21.8066 -7.41309 -43.791 -7.41309c-21.9854 0 -33.5713 3.93848 -43.792 7.41309c-8.62891 2.93262 -15.4453 5.25 -30.7109 5.25s-22.0811 -2.31738 -30.7109 -5.25
c-10.2207 -3.47559 -21.8057 -7.41309 -43.79 -7.41309c-21.9824 0 -33.5664 3.93848 -43.7871 7.41309c-8.62793 2.93262 -15.4434 5.25 -30.709 5.25s-22.0801 -2.31738 -30.71 -5.25098c-10.2197 -3.47461 -21.8027 -7.41211 -43.7842 -7.41211
c-21.9834 0 -33.5684 3.93848 -43.7891 7.41309c-2.80957 0.955078 -5.42871 1.84375 -8.20801 2.6084l49.5059 -233.668h302.982zM300.695 21.5625c11.2197 0 20.3164 -9.0957 20.3164 -20.3174c0 -11.2207 -9.09668 -20.3174 -20.3164 -20.3174h-89.3906
c-11.2197 0 -20.3164 9.09668 -20.3164 20.3174s9.09668 20.3174 20.3164 20.3174h89.3906z" />
    <glyph glyph-name="uniF10F" unicode="&#xf10f;" 
d="M192.511 292.677c29.8301 0 59.9326 -20.1016 59.9326 -65.0137v-2.03125c0 -30.833 -7.97266 -56.4814 -24.373 -78.4111c-20.6143 -27.5684 -53.9268 -37.3926 -78.2256 -37.3926c-5.61035 0 -10.1592 4.54785 -10.1592 10.1582v8.12695
c0 5.61035 4.54883 10.1592 10.1592 10.1592c17.0117 0 40.4121 6.94141 55.0654 26.4229c2.11621 2.82031 4.07422 5.81445 5.8623 8.95605c-6.02539 -1.89551 -12.4961 -2.875 -19.2783 -2.875c-36.3398 0 -58.917 22.9668 -58.917 59.9346v2.03125
c0 36.9697 22.9658 59.9346 59.9336 59.9346zM191.899 264.234c-19.9355 0 -30.4727 -10.6787 -30.4727 -30.8799v-3.25c0 -19.9141 10.4619 -30.8809 29.457 -30.8809h1.21875c13.584 0 25.2422 6.8252 31.5225 18.3516c0.248047 2.82715 0.374023 5.5293 0.374023 8.05957
v2.03125c0 21.8721 -12.4092 36.5684 -30.8809 36.5684h-1.21875zM319.489 231.729c35.8477 0 59.9336 -24.0859 59.9336 -59.9355v-2.03223c0 -35.8486 -24.0859 -59.9346 -59.9336 -59.9346c-31.5625 0 -52.2217 15.3633 -58.168 43.2588
c-0.638672 2.99805 0.110352 6.125 2.03906 8.50879s4.83008 3.76758 7.89648 3.76758h8.68262c4.60645 0 8.63672 -3.10059 9.81836 -7.55371c2.27148 -8.56055 7.71875 -19.9424 28.7148 -19.9424h2.03125c9.04102 0 30.0684 3.00977 30.0684 30.8809v4.06348
c0 27.8711 -21.0273 30.8809 -30.0684 30.8809h-2.03125c-11.0703 0 -25.9395 -4.82324 -31.4102 -18.4199c-1.9248 -4.78125 -7.12207 -7.36133 -12.0967 -6.00781l-6.70605 1.82812c-4.57715 1.24805 -7.68164 5.49805 -7.47754 10.2383l3.86328 89.5947
c0.234375 5.43555 4.70801 9.72168 10.1494 9.72168h92.4375c5.61035 0 10.1582 -4.54883 10.1582 -10.1592v-8.12695c0 -5.61035 -4.54785 -10.1582 -10.1582 -10.1582h-74.9756l-1.52539 -36.5127c8.38867 3.95898 18.127 6.04004 28.7578 6.04004zM495.89 401.274
c10.9766 -2.3252 17.9902 -13.1094 15.665 -24.0869l-67.7236 -319.656c-1.98926 -9.38867 -10.2783 -16.1055 -19.876 -16.1055h-335.91c-9.59766 0 -17.8857 6.7168 -19.876 16.1055l-67.7236 319.656c-2.3252 10.9775 4.68848 21.7617 15.666 24.0869
c10.9785 2.32422 21.7607 -4.6875 24.0869 -15.6641l5.75684 -27.1709c13.7002 -1.20703 22.4365 -4.16113 30.3369 -6.84668c8.62793 -2.93457 15.4443 -5.25 30.709 -5.25c15.2637 0 22.0781 2.31543 30.7061 5.25c10.2207 3.47559 21.8047 7.41309 43.7891 7.41309
c21.9824 0 33.5664 -3.93945 43.7871 -7.41309c8.62793 -2.93457 15.4434 -5.25 30.709 -5.25s22.082 2.31543 30.7109 5.25c10.2207 3.47363 21.8057 7.41113 43.7891 7.41113s33.5684 -3.9375 43.7891 -7.41113c8.63086 -2.93457 15.4463 -5.25 30.7148 -5.25
c15.2666 0 22.082 2.31543 30.7119 5.25c7.89941 2.68555 16.6367 5.63965 30.3389 6.84668l5.75586 27.1709c2.32617 10.9766 13.1104 17.9912 24.0869 15.6641zM407.491 82.0596l49.5059 233.666c-2.78027 -0.764648 -5.40234 -1.65234 -8.21289 -2.6084
c-10.2197 -3.47461 -21.8047 -7.41211 -43.7891 -7.41211c-21.9863 0 -33.5723 3.93945 -43.793 7.41309c-8.62891 2.93457 -15.4453 5.25 -30.7109 5.25s-22.0811 -2.31543 -30.7109 -5.25c-10.2207 -3.47559 -21.8057 -7.41309 -43.79 -7.41309
c-21.9824 0 -33.5664 3.93945 -43.7871 7.41309c-8.62793 2.93457 -15.4434 5.25 -30.709 5.25s-22.0801 -2.31543 -30.71 -5.25c-10.2197 -3.47363 -21.8027 -7.41113 -43.7842 -7.41113c-21.9834 0 -33.5674 3.93848 -43.7881 7.41309
c-2.80859 0.955078 -5.42969 1.84277 -8.20898 2.6084l49.5059 -233.669h302.982zM300.695 22.9141c11.2197 0 20.3164 -9.09668 20.3164 -20.3174s-9.09668 -20.3174 -20.3164 -20.3174h-89.3906c-11.2197 0 -20.3164 9.09668 -20.3164 20.3174
s9.09668 20.3174 20.3164 20.3174h89.3906z" />
    <glyph glyph-name="uniF117" unicode="&#xf117;" 
d="M495.89 402.626c10.9766 -2.32617 17.9902 -13.1094 15.665 -24.0879l-67.7236 -319.656c-1.98926 -9.38867 -10.2783 -16.1055 -19.876 -16.1055h-335.91c-9.59766 0 -17.8867 6.7168 -19.876 16.1055l-67.7236 319.656
c-2.32715 10.9785 4.68848 21.7617 15.665 24.0879c10.9863 2.32617 21.7617 -4.6875 24.0869 -15.6641l5.75586 -27.1709c13.7012 -1.20703 22.4385 -4.16113 30.3379 -6.84668c8.62793 -2.93359 15.4424 -5.25 30.709 -5.25c15.2627 0 22.0771 2.31738 30.7051 5.25
c10.2217 3.47559 21.8066 7.41309 43.7891 7.41309s33.5664 -3.9375 43.7881 -7.41309c8.62793 -2.93359 15.4434 -5.25 30.708 -5.25c15.2676 0 22.084 2.31641 30.7129 5.25c10.2197 3.47363 21.8047 7.41113 43.7881 7.41113c21.9824 0 33.5674 -3.9375 43.7881 -7.41113
c8.63086 -2.93359 15.4482 -5.25 30.7158 -5.25s22.083 2.31641 30.7129 5.25c7.90039 2.68555 16.6367 5.63965 30.3389 6.84668l5.75586 27.1709c2.3252 10.9756 13.0938 17.9932 24.0869 15.6641zM407.491 83.4102l49.5059 233.67
c-2.78027 -0.766602 -5.40234 -1.65332 -8.21289 -2.60938c-10.2207 -3.47461 -21.8057 -7.41211 -43.7891 -7.41211c-21.9844 0 -33.5703 3.93848 -43.792 7.41309c-8.62891 2.93262 -15.4463 5.25 -30.7119 5.25c-15.2666 0 -22.082 -2.31738 -30.7109 -5.25
c-10.2217 -3.47559 -21.8066 -7.41309 -43.79 -7.41309c-21.9814 0 -33.5664 3.93848 -43.7871 7.41309c-8.62793 2.93262 -15.4424 5.25 -30.709 5.25c-15.2656 0 -22.082 -2.31738 -30.71 -5.25098c-10.2207 -3.47461 -21.8027 -7.41211 -43.7842 -7.41211
c-21.9824 0 -33.5674 3.93848 -43.7881 7.41309c-2.81055 0.955078 -5.43164 1.84375 -8.21094 2.6084l49.5078 -233.67h302.982zM219.427 21.5625c11.2197 0 20.3164 -9.09668 20.3164 -20.3174s-9.09668 -20.3174 -20.3164 -20.3174h-89.3906
c-11.2197 0 -20.3164 9.09668 -20.3164 20.3174s9.09668 20.3174 20.3164 20.3174h89.3906zM381.964 21.5625c11.2197 0 20.3164 -9.09668 20.3164 -20.3174s-9.09668 -20.3174 -20.3164 -20.3174h-89.3906c-11.2197 0 -20.3164 9.09668 -20.3164 20.3174
s9.09668 20.3174 20.3164 20.3174h89.3906z" />
    <glyph glyph-name="uniF107" unicode="&#xf107;" 
d="M495.89 400.595c10.9766 -2.3252 17.9902 -13.1104 15.665 -24.0869l-67.7236 -319.656c-1.98926 -9.38867 -10.2783 -16.1055 -19.876 -16.1055h-335.91c-9.59766 0 -17.8867 6.7168 -19.876 16.1055l-67.7236 319.656c-2.32715 10.9766 4.68848 21.7617 15.665 24.0869
c10.9834 2.32324 21.7617 -4.6875 24.0869 -15.665l5.75586 -27.1699c13.7012 -1.20703 22.4385 -4.16113 30.3379 -6.84766c8.62793 -2.93359 15.4424 -5.25 30.709 -5.25c15.2627 0 22.0771 2.31641 30.7051 5.25c10.2217 3.47559 21.8066 7.41309 43.7891 7.41309
s33.5664 -3.93848 43.7881 -7.41309c8.62793 -2.93359 15.4434 -5.25 30.708 -5.25c15.2676 0 22.084 2.31641 30.7129 5.25c10.2197 3.47461 21.8047 7.41211 43.7881 7.41211c21.9824 0 33.5674 -3.9375 43.7881 -7.41211c8.63086 -2.93359 15.4482 -5.25 30.7158 -5.25
s22.083 2.31641 30.7129 5.25c7.90039 2.68652 16.6367 5.64062 30.3389 6.84766l5.75586 27.1699c2.3252 10.9756 13.0957 17.9922 24.0869 15.665zM407.491 81.3799l49.5059 233.667c-2.78027 -0.766602 -5.40234 -1.65332 -8.21289 -2.60938
c-10.2207 -3.47461 -21.8057 -7.41211 -43.7891 -7.41211c-21.9844 0 -33.5703 3.93945 -43.792 7.41309c-8.62891 2.93359 -15.4463 5.25 -30.7119 5.25c-15.2666 0 -22.082 -2.31641 -30.7109 -5.25c-10.2217 -3.47559 -21.8066 -7.41309 -43.79 -7.41309
c-21.9814 0 -33.5664 3.93945 -43.7871 7.41309c-8.62793 2.93359 -15.4424 5.25 -30.709 5.25c-15.2656 0 -22.082 -2.31641 -30.71 -5.25c-10.2207 -3.47363 -21.8027 -7.41113 -43.7842 -7.41113c-21.9824 0 -33.5674 3.93848 -43.7881 7.41309
c-2.81055 0.954102 -5.43164 1.84277 -8.21094 2.6084l49.5078 -233.669h302.982zM193.728 231.048c35.8496 0 59.9346 -24.085 59.9346 -59.9336v-2.03223c0 -35.8486 -24.085 -59.9336 -59.9346 -59.9336c-31.4707 0 -52.1104 15.292 -58.1162 43.0586
c-0.650391 3.00098 0.09375 6.13574 2.02246 8.52637c1.92871 2.38965 4.83398 3.7793 7.90625 3.7793h8.65625c4.59668 0 8.62109 -3.08887 9.81152 -7.52832c2.27832 -8.5 7.7334 -19.7988 28.7041 -19.7988h2.03223c9.04102 0 30.0674 3.00977 30.0674 30.8809v4.06348
c0 27.8711 -21.0264 30.8809 -30.0674 30.8809h-2.03223c-11.0703 0 -25.9395 -4.82324 -31.4102 -18.4199c-1.9248 -4.78223 -7.12598 -7.36035 -12.0977 -6.00781l-6.70508 1.82812c-4.57715 1.24902 -7.67969 5.49902 -7.47656 10.2383l3.86035 89.5947
c0.234375 5.43457 4.70801 9.7207 10.1484 9.7207h92.4404c5.61133 0 10.1592 -4.54785 10.1592 -10.1582v-8.12695c0 -5.61035 -4.54785 -10.1582 -10.1592 -10.1582h-74.9756l-1.52637 -36.5127c8.38965 3.95898 18.127 6.03906 28.7578 6.03906zM319.693 291.997
c36.4102 0 57.293 -21.1045 57.293 -57.9023v-67.0439c0 -36.7988 -20.8828 -57.9023 -57.293 -57.9023c-36.4111 0 -57.293 21.1055 -57.293 57.9023v67.0439c0 36.7979 20.8818 57.9023 57.293 57.9023zM320.303 137.188c20.29 0 27.833 8.64355 27.833 31.8965v62.9805
c0 23.252 -7.54297 31.8965 -27.833 31.8965h-1.21973c-20.29 0 -27.833 -8.64453 -27.833 -31.8965v-62.9805c0 -23.2529 7.54297 -31.8965 27.833 -31.8965h1.21973zM300.695 23.5938c11.2197 0 20.3164 -9.09473 20.3164 -20.3174
c0 -11.2197 -9.09668 -20.3164 -20.3164 -20.3164h-89.3906c-11.2197 0 -20.3164 9.09668 -20.3164 20.3164c0 11.2207 9.09668 20.3174 20.3164 20.3174h89.3906z" />
    <glyph glyph-name="uniF118" unicode="&#xf118;" 
d="M509.018 -6.81152c4.09961 -7.43359 3.96484 -16.4814 -0.351562 -23.792c-4.31836 -7.30859 -12.1768 -11.7949 -20.666 -11.7949h-464c-8.48926 0 -16.3477 4.48633 -20.666 11.7949c-4.31836 7.31055 -4.45117 16.3574 -0.351562 23.792l232 420.797
c4.22266 7.6582 12.2734 12.4131 21.0176 12.4131s16.7949 -4.75488 21.0176 -12.4131zM64.6387 5.60156l382.723 -0.00195312l-191.361 347.09zM211.313 179.411l44.6865 -44.6865l44.6846 44.6885c6.25 6.24609 16.3809 6.24609 22.6289 0
c6.24805 -6.25 6.24805 -16.3809 0 -22.6289l-44.6865 -44.6865l44.6865 -44.6865c6.24805 -6.25 6.24805 -16.3809 0 -22.6289c-3.12305 -3.12305 -7.21875 -4.68652 -11.3135 -4.68652s-8.18848 1.56348 -11.3135 4.68652l-44.6865 44.6865l-44.6885 -44.6875
c-3.12305 -3.12402 -7.21875 -4.68652 -11.3135 -4.68652c-4.09375 0 -8.18848 1.5625 -11.3135 4.68652c-6.24805 6.24902 -6.24805 16.3799 0 22.6279l44.6865 44.6865l-44.6865 44.6865c-6.24805 6.25 -6.24805 16.3809 0 22.6289
c6.25 6.24609 16.3809 6.24609 22.6289 0z" />
    <glyph glyph-name="uniF12C" unicode="&#xf12c;" 
d="M256 448c141.158 0 256 -114.842 256 -256s-114.842 -256 -256 -256s-256 114.842 -256 256s114.842 256 256 256zM256 -12.7998c112.927 0 204.8 91.873 204.8 204.8s-91.873 204.8 -204.8 204.8s-204.8 -91.873 -204.8 -204.8s91.873 -204.8 204.8 -204.8z
M331.884 337.066c9.42383 0 17.0664 -7.64258 17.0664 -17.0664v-12.4727c0 -9.42383 -7.64258 -17.0664 -17.0664 -17.0664h-101.091v-72.5332h84.6758c9.42383 0 17.0664 -7.64258 17.0664 -17.0664v-12.4688c0 -9.4248 -7.64258 -17.0674 -17.0664 -17.0674h-84.6777
v-107.325c0 -9.42578 -7.64258 -17.0664 -17.0664 -17.0664h-13.1279c-9.4248 0 -17.0664 7.64062 -17.0664 17.0664v256c0 9.42383 7.6416 17.0664 17.0664 17.0664h131.287z" />
    <glyph glyph-name="uniF101" unicode="&#xf101;" 
d="M495.89 401.274c10.9766 -2.3252 17.9902 -13.1094 15.665 -24.0869l-67.7236 -319.656c-1.98926 -9.38867 -10.2783 -16.1055 -19.876 -16.1055h-335.91c-9.59766 0 -17.8857 6.7168 -19.876 16.1055l-67.7236 319.656c-2.3252 10.9775 4.68848 21.7617 15.666 24.0869
c10.9727 2.32422 21.7607 -4.6875 24.0869 -15.6641l5.75684 -27.1709c13.7002 -1.20703 22.4365 -4.16113 30.3369 -6.84668c8.62793 -2.93457 15.4443 -5.25 30.709 -5.25c15.2637 0 22.0781 2.31738 30.7061 5.25c10.2207 3.47559 21.8047 7.41309 43.7891 7.41309
c21.9824 0 33.5664 -3.9375 43.7871 -7.41309c8.62793 -2.93457 15.4434 -5.25 30.709 -5.25s22.082 2.31543 30.7109 5.25c10.2207 3.47363 21.8057 7.41113 43.7891 7.41113s33.5684 -3.9375 43.7891 -7.41113c8.63086 -2.93457 15.4463 -5.25 30.7148 -5.25
c15.2666 0 22.082 2.31543 30.7119 5.25c7.89941 2.68555 16.6367 5.63965 30.3389 6.84668l5.75586 27.1709c2.32617 10.9766 13.1113 17.9912 24.0869 15.6641zM407.491 82.0596l49.5059 233.666c-2.78027 -0.764648 -5.40234 -1.65234 -8.21289 -2.6084
c-10.2197 -3.47461 -21.8047 -7.41211 -43.7891 -7.41211c-21.9863 0 -33.5723 3.93945 -43.793 7.41309c-8.62891 2.93457 -15.4453 5.25 -30.7109 5.25s-22.0811 -2.31543 -30.7109 -5.25c-10.2207 -3.47559 -21.8057 -7.41309 -43.79 -7.41309
c-21.9824 0 -33.5664 3.93945 -43.7871 7.41309c-8.62793 2.93457 -15.4434 5.25 -30.709 5.25s-22.0801 -2.31543 -30.71 -5.25c-10.2197 -3.47363 -21.8027 -7.41113 -43.7842 -7.41113c-21.9834 0 -33.5674 3.93848 -43.7881 7.41309
c-2.80859 0.955078 -5.42969 1.84277 -8.20898 2.6084l49.5059 -233.669h302.982zM237.292 202.791c10.9766 -8.81738 16.9814 -21.8271 16.9814 -37.6992v-3.04688c0 -30.7432 -24.6465 -52.2139 -59.9355 -52.2139c-38.0879 0 -59.9336 22.2158 -59.9336 60.9502v2.03125
c0 5.61035 4.54883 10.1582 10.1592 10.1582h8.12695c5.60938 0 10.1582 -4.54785 10.1582 -10.1582c0 -31.3223 17.3916 -34.9443 30.4727 -34.9443h2.03223c5.02051 0 30.0674 1.14648 30.0674 23.7695v3.04688c0 21.8203 -19.3213 24.1758 -27.6279 24.1758h-23.7695
c-5.61035 0 -10.1592 4.54883 -10.1592 10.1582v7.7207c0 5.61035 4.54883 10.1592 10.1592 10.1592h22.7539c12.6025 0 27.6279 3.73535 27.6279 21.5342v1.42285c0 15.5195 -10.8604 24.7852 -29.0518 24.7852h-2.03223c-18.6562 0 -29.457 -6.04883 -29.457 -36.9746
c0 -5.61035 -4.54785 -10.1582 -10.1582 -10.1582h-8.12695c-5.61035 0 -10.1582 4.54785 -10.1582 10.1582v5.07812c0 38.6494 20.9238 59.9336 58.917 59.9336c35.792 0 58.9189 -20.3359 58.9189 -51.8066v-2.84473c0 -14.7979 -5.63672 -26.9365 -15.9648 -35.2354z
M320.304 292.677c36.4102 0 57.292 -21.1045 57.293 -57.9023v-67.0439c0 -36.7988 -20.8828 -57.9023 -57.293 -57.9023c-36.4092 0 -57.293 21.1055 -57.293 57.9023v67.0439c0 36.7979 20.8838 57.9023 57.293 57.9023zM320.912 137.867
c20.2881 0 27.833 8.64453 27.833 31.8965v62.9805c0 23.252 -7.54297 31.8965 -27.833 31.8965h-1.21875c-20.291 0 -27.834 -8.64453 -27.834 -31.8965v-62.9805c0 -23.252 7.54297 -31.8965 27.834 -31.8965h1.21875zM219.427 22.9141
c11.2197 0 20.3164 -9.09668 20.3164 -20.3174s-9.09668 -20.3174 -20.3164 -20.3174h-89.3906c-11.2197 0 -20.3164 9.09668 -20.3164 20.3174s9.09668 20.3174 20.3164 20.3174h89.3906zM381.964 22.9141c11.2197 0 20.3164 -9.09668 20.3164 -20.3174
s-9.09668 -20.3174 -20.3164 -20.3174h-89.3906c-11.2197 0 -20.3164 9.09668 -20.3164 20.3174s9.09668 20.3174 20.3164 20.3174h89.3906z" />
    <glyph glyph-name="uniF10B" unicode="&#xf10b;" 
d="M495.89 400.595c10.9766 -2.3252 17.9902 -13.1104 15.665 -24.0869l-67.7236 -319.656c-1.98926 -9.38867 -10.2783 -16.1055 -19.876 -16.1055h-335.91c-9.59766 0 -17.8867 6.7168 -19.876 16.1055l-67.7236 319.656c-2.32715 10.9766 4.68848 21.7617 15.665 24.0869
c10.9863 2.32324 21.7617 -4.6875 24.0869 -15.665l5.75586 -27.1699c13.7012 -1.20703 22.4385 -4.16113 30.3379 -6.84766c8.62793 -2.93359 15.4424 -5.25 30.709 -5.25c15.2627 0 22.0771 2.31641 30.7051 5.25c10.2217 3.47559 21.8066 7.41309 43.7891 7.41309
s33.5664 -3.93848 43.7881 -7.41309c8.62793 -2.93359 15.4434 -5.25 30.708 -5.25c15.2676 0 22.084 2.31641 30.7129 5.25c10.2197 3.47461 21.8047 7.41211 43.7881 7.41211c21.9824 0 33.5674 -3.9375 43.7881 -7.41211c8.63086 -2.93359 15.4482 -5.25 30.7158 -5.25
s22.083 2.31641 30.7129 5.25c7.90039 2.68652 16.6367 5.64062 30.3389 6.84766l5.75586 27.1699c2.32617 10.9756 13.0967 17.9922 24.0869 15.665zM407.491 81.3799l49.5059 233.667c-2.78027 -0.766602 -5.40234 -1.65332 -8.21289 -2.60938
c-10.2207 -3.47461 -21.8057 -7.41211 -43.7891 -7.41211c-21.9844 0 -33.5703 3.93945 -43.792 7.41309c-8.62891 2.93359 -15.4463 5.25 -30.7119 5.25c-15.2666 0 -22.082 -2.31641 -30.7109 -5.25c-10.2217 -3.47559 -21.8066 -7.41309 -43.79 -7.41309
c-21.9814 0 -33.5664 3.93945 -43.7871 7.41309c-8.62793 2.93359 -15.4424 5.25 -30.709 5.25c-15.2656 0 -22.082 -2.31641 -30.71 -5.25c-10.2207 -3.47363 -21.8027 -7.41113 -43.7842 -7.41113c-21.9824 0 -33.5674 3.93848 -43.7881 7.41309
c-2.81055 0.954102 -5.43164 1.84277 -8.21094 2.6084l49.5078 -233.669h302.982zM195.861 231.048c36.3418 0 58.917 -22.9648 58.917 -59.9326v-2.03125c0 -36.9697 -22.9648 -59.9346 -59.9326 -59.9346c-29.8311 0 -59.9336 20.1035 -59.9336 65.0137v2.03125
c0 30.832 7.96973 56.4805 24.3691 78.4092c20.6201 27.5723 53.9307 37.3945 78.2275 37.3945c5.61133 0 10.1582 -4.54785 10.1582 -10.1582v-8.12695c0 -5.61035 -4.54688 -10.1582 -10.1582 -10.1582c-17.0098 0 -40.4092 -6.94238 -55.0664 -26.4248
c-2.13477 -2.84473 -4.09961 -5.8418 -5.89453 -8.98828c6.04785 1.91602 12.5293 2.90625 19.3135 2.90625zM195.455 137.594c19.9365 0 30.4756 10.6787 30.4756 30.8799v3.25c0 19.9131 -10.4629 30.8809 -29.46 30.8809h-1.21875
c-13.7275 0 -25.4561 -6.88379 -31.71 -18.5049c-0.186523 -2.58496 -0.186523 -5.28125 -0.186523 -7.90527v-2.03125c0 -21.874 12.4092 -36.5693 30.8809 -36.5693h1.21875zM319.793 291.997c36.4111 0 57.293 -21.1045 57.293 -57.9023v-67.0439
c0 -36.7988 -20.8818 -57.9023 -57.293 -57.9023s-57.293 21.1055 -57.293 57.9023v67.0439c0 36.7979 20.8818 57.9023 57.293 57.9023zM320.405 137.188c20.2891 0 27.832 8.64355 27.833 31.8965v62.9805c0 23.252 -7.54395 31.8965 -27.833 31.8965h-1.21875
c-20.29 0 -27.833 -8.64453 -27.833 -31.8965v-62.9805c0 -23.2529 7.54395 -31.8965 27.833 -31.8965h1.21875zM300.695 23.5938c11.2197 0 20.3164 -9.09473 20.3164 -20.3174c0 -11.2197 -9.09668 -20.3164 -20.3164 -20.3164h-89.3906
c-11.2197 0 -20.3164 9.09668 -20.3164 20.3164c0 11.2207 9.09668 20.3174 20.3164 20.3174h89.3906z" />
    <glyph glyph-name="uniF115" unicode="&#xf115;" 
d="M256 -4.92285c-108.583 0 -196.923 88.3398 -196.923 196.923s88.3398 196.923 196.923 196.923s196.923 -88.3398 196.923 -196.923s-88.3398 -196.923 -196.923 -196.923zM256 349.538c-86.8682 0 -157.538 -70.6709 -157.538 -157.538
s70.6709 -157.538 157.538 -157.538s157.538 70.6709 157.538 157.538s-70.6709 157.538 -157.538 157.538zM492.308 448c10.876 0 19.6924 -8.81641 19.6924 -19.6924v-472.615c0 -10.876 -8.81641 -19.6924 -19.6924 -19.6924h-472.615
c-10.875 0 -19.6924 8.81641 -19.6924 19.6924v472.615c0 10.876 8.81738 19.6924 19.6924 19.6924h472.615zM472.615 -24.6152v433.23h-433.23v-433.23h433.23z" />
    <glyph glyph-name="uniF106" unicode="&#xf106;" 
d="M495.89 371.702c10.9766 -2.32715 17.9902 -13.1094 15.665 -24.0879l-67.7236 -319.656c-1.98926 -9.38965 -10.2783 -16.1064 -19.876 -16.1064h-335.91c-9.59766 0 -17.8867 6.7168 -19.876 16.1064l-67.7236 319.656
c-2.32715 10.9785 4.68848 21.7607 15.665 24.0879c10.9883 2.32617 21.7637 -4.6875 24.0869 -15.6641l5.75586 -27.1709c13.7012 -1.20703 22.4385 -4.16113 30.3379 -6.84668c8.62793 -2.93457 15.4424 -5.25 30.709 -5.25c15.2627 0 22.0771 2.31738 30.7051 5.25
c10.2217 3.47559 21.8066 7.41309 43.7891 7.41309s33.5664 -3.93945 43.7881 -7.41309c8.62793 -2.93457 15.4434 -5.25 30.708 -5.25c15.2676 0 22.084 2.31543 30.7129 5.25c10.2197 3.47363 21.8047 7.41113 43.7881 7.41113
c21.9824 0 33.5674 -3.9375 43.7881 -7.41113c8.63086 -2.93457 15.4482 -5.25 30.7158 -5.25s22.083 2.31543 30.7129 5.25c7.90039 2.68555 16.6367 5.63965 30.3389 6.84668l5.75586 27.1709c2.3252 10.9756 13.0928 17.9922 24.0869 15.6641zM407.491 52.4863
l49.5059 233.67c-2.78027 -0.766602 -5.40234 -1.65332 -8.21289 -2.61035c-10.2207 -3.47363 -21.8057 -7.41113 -43.7891 -7.41113c-21.9844 0 -33.5703 3.93848 -43.792 7.41309c-8.62891 2.93262 -15.4463 5.25 -30.7119 5.25
c-15.2666 0 -22.082 -2.31738 -30.7109 -5.25c-10.2217 -3.47559 -21.8066 -7.41309 -43.79 -7.41309c-21.9814 0 -33.5664 3.93848 -43.7871 7.41309c-8.62793 2.93262 -15.4424 5.25 -30.709 5.25c-15.2656 0 -22.082 -2.31738 -30.71 -5.25195
c-10.2207 -3.47363 -21.8027 -7.41113 -43.7842 -7.41113c-21.9824 0 -33.5674 3.93848 -43.7881 7.41309c-2.81055 0.955078 -5.43164 1.84277 -8.21094 2.6084l49.5078 -233.67h302.982zM193.728 202.156c35.8496 0 59.9346 -24.0859 59.9346 -59.9336v-2.03125
c0 -35.8486 -24.085 -59.9346 -59.9346 -59.9346c-31.4707 0 -52.1104 15.292 -58.1162 43.0586c-0.650391 3.00195 0.09375 6.13574 2.02246 8.52734c1.92871 2.38867 4.83398 3.77832 7.90625 3.77832h8.65625c4.59668 0 8.62109 -3.08789 9.81152 -7.52832
c2.27832 -8.49902 7.7334 -19.7979 28.7041 -19.7979h2.03223c9.04102 0 30.0674 3.00977 30.0674 30.8809v4.06348c0 27.8711 -21.0264 30.8799 -30.0674 30.8799h-2.03223c-11.0703 0 -25.9395 -4.82324 -31.4102 -18.4189
c-1.9248 -4.7832 -7.12695 -7.36133 -12.0977 -6.00879l-6.70508 1.8291c-4.57715 1.24805 -7.67969 5.49902 -7.47656 10.2383l3.86035 89.5947c0.234375 5.43359 4.70801 9.7207 10.1484 9.7207h92.4404c5.61133 0 10.1592 -4.54883 10.1592 -10.1582v-8.12695
c0 -5.61035 -4.54785 -10.1592 -10.1592 -10.1592h-74.9756l-1.52637 -36.5127c8.38965 3.95801 18.127 6.03906 28.7578 6.03906zM319.693 263.104c36.4102 0 57.293 -21.1045 57.293 -57.9023v-67.0439c0 -36.7988 -20.8828 -57.9023 -57.293 -57.9023
c-36.4111 0 -57.293 21.1035 -57.293 57.9023v67.0439c0 36.7979 20.8818 57.9023 57.293 57.9023zM320.303 108.293c20.29 0 27.833 8.64648 27.833 31.8965v62.9805c0 23.2529 -7.54297 31.8975 -27.833 31.8975h-1.21973c-20.29 0 -27.833 -8.64648 -27.833 -31.8975
v-62.9805c0 -23.252 7.54297 -31.8965 27.833 -31.8965h1.21973z" />
    <glyph glyph-name="uniF10D" unicode="&#xf10d;" 
d="M245.129 290.646c5.61133 0 10.1582 -4.54883 10.1602 -10.1562v-5.0791c0 -1.3125 -0.254883 -2.61133 -0.749023 -3.82617l-62.3721 -153.389c-1.55664 -3.82812 -5.27734 -6.33203 -9.41016 -6.33203h-8.73438c-3.38086 0 -6.54004 1.68164 -8.42773 4.48535
c-1.88867 2.80566 -2.25684 6.36328 -0.985352 9.49609l55.4199 136.433l-8.54102 -0.0732422l-45.5947 -0.000976562v-38.6016c0 -5.61035 -4.54688 -10.1582 -10.1582 -10.1582h-8.12695c-5.61133 0 -10.1582 4.54785 -10.1582 10.1582v56.8857
c0 5.60938 4.54688 10.1582 10.1582 10.1582h97.5195zM317.255 292.678c36.4111 0 57.293 -21.1035 57.293 -57.9023v-67.0439c0 -36.7979 -20.8818 -57.9023 -57.293 -57.9023s-57.293 21.1055 -57.293 57.9023v67.0439c0 36.7988 20.8818 57.9023 57.293 57.9023z
M317.864 137.867c20.2891 0 27.833 8.64551 27.833 31.8965v62.9805c0 23.252 -7.54297 31.8965 -27.833 31.8965h-1.21875c-20.29 0 -27.833 -8.64453 -27.833 -31.8965v-62.9805c0 -23.252 7.54297 -31.8965 27.833 -31.8965h1.21875zM495.89 401.274
c10.9766 -2.3252 17.9902 -13.1084 15.665 -24.0869l-67.7236 -319.656c-1.98926 -9.38867 -10.2783 -16.1055 -19.876 -16.1055h-335.91c-9.59766 0 -17.8867 6.7168 -19.876 16.1055l-67.7236 319.656c-2.32715 10.9785 4.68848 21.7617 15.665 24.0869
c10.9834 2.32617 21.7617 -4.6875 24.0869 -15.6641l5.75586 -27.1709c13.7012 -1.20703 22.4385 -4.16113 30.3379 -6.84668c8.62793 -2.93457 15.4424 -5.25 30.709 -5.25c15.2627 0 22.0771 2.31738 30.7051 5.25c10.2217 3.47363 21.8066 7.41309 43.791 7.41309
c21.9814 0 33.5664 -3.9375 43.7871 -7.41309c8.62793 -2.93457 15.4434 -5.25 30.709 -5.25c15.2676 0 22.083 2.31543 30.7129 5.25c10.2188 3.47363 21.8037 7.41113 43.7861 7.41113s33.5674 -3.9375 43.7881 -7.41113c8.63086 -2.93457 15.4482 -5.25 30.7158 -5.25
s22.083 2.31543 30.7129 5.25c7.90039 2.68555 16.6367 5.63965 30.3389 6.84668l5.75586 27.1709c2.3252 10.9756 13.0957 17.9912 24.0869 15.6641zM407.491 82.0596l49.5059 233.669c-2.78027 -0.766602 -5.40234 -1.65332 -8.21289 -2.61035
c-10.2217 -3.47363 -21.8057 -7.41113 -43.7891 -7.41113c-21.9844 0 -33.5713 3.93848 -43.792 7.41309c-8.62891 2.93262 -15.4463 5.25 -30.7119 5.25s-22.0811 -2.31738 -30.709 -5.25c-10.2207 -3.47559 -21.8047 -7.41309 -43.79 -7.41309
c-21.9824 0 -33.5674 3.93848 -43.7881 7.41309c-8.62793 2.93262 -15.4424 5.25 -30.708 5.25c-15.2676 0 -22.084 -2.31641 -30.7119 -5.25c-10.2207 -3.47461 -21.8027 -7.41211 -43.7842 -7.41211c-21.9824 0 -33.5674 3.93945 -43.7881 7.41309
c-2.81055 0.955078 -5.43164 1.84375 -8.21094 2.60938l49.5078 -233.671h302.982zM219.427 22.9141c11.2197 0 20.3164 -9.09668 20.3164 -20.3174s-9.09668 -20.3174 -20.3164 -20.3174h-89.3906c-11.2197 0 -20.3164 9.09668 -20.3164 20.3174
s9.09668 20.3174 20.3164 20.3174h89.3906zM381.964 22.9141c11.2197 0 20.3164 -9.09668 20.3164 -20.3174s-9.09668 -20.3174 -20.3164 -20.3174h-89.3906c-11.2197 0 -20.3164 9.09668 -20.3164 20.3174s9.09668 20.3174 20.3164 20.3174h89.3906z" />
    <glyph glyph-name="uniF12E" unicode="&#xf12e;" 
d="M509.016 -6.81152c4.09961 -7.43359 3.9668 -16.4795 -0.349609 -23.792c-4.31836 -7.30859 -12.1768 -11.7949 -20.666 -11.7949h-464c-8.48926 0 -16.3486 4.48633 -20.666 11.7949c-4.31836 7.31055 -4.45117 16.3574 -0.351562 23.792l232 420.797
c4.22266 7.6582 12.2734 12.4131 21.0176 12.4131s16.7949 -4.75488 21.0176 -12.4131zM173.12 202.366l-37.0479 -67.2002h239.855l-37.0479 67.2002h-165.76zM256 352.689l-56.416 -102.324h112.832zM64.6367 5.60156h382.724l-44.9688 81.5635h-292.787z" />
    <glyph glyph-name="uniF111" unicode="&#xf111;" 
d="M192.511 263.104c29.8301 0 59.9336 -20.1016 59.9336 -65.0137v-2.03125c0 -30.832 -7.97266 -56.4795 -24.3721 -78.4111c-20.6162 -27.5684 -53.9287 -37.3926 -78.2266 -37.3926c-5.61035 0 -10.1582 4.54785 -10.1582 10.1582v8.12695
c0 5.61035 4.54785 10.1592 10.1582 10.1592c17.0107 0 40.4092 6.94141 55.0664 26.4229c2.11523 2.82031 4.07422 5.81641 5.8623 8.95605c-6.02734 -1.89551 -12.4971 -2.875 -19.2803 -2.875c-36.3398 0 -58.917 22.9668 -58.917 59.9346v2.03125
c0 36.9697 22.9658 59.9346 59.9336 59.9346zM191.899 234.662c-19.9355 0 -30.4727 -10.6787 -30.4727 -30.8799v-3.25c0 -19.9141 10.4619 -30.8809 29.457 -30.8809h1.21875c13.584 0 25.2422 6.82617 31.5215 18.3525c0.249023 2.82324 0.375 5.52637 0.375 8.05859
v2.03125c0 21.8721 -12.4092 36.5684 -30.8809 36.5684h-1.21875zM319.489 202.156c35.8477 0 59.9346 -24.0859 59.9346 -59.9336v-2.03125c0 -35.8486 -24.085 -59.9346 -59.9346 -59.9346c-31.5615 0 -52.2188 15.3623 -58.166 43.2568
c-0.639648 2.99902 0.109375 6.125 2.03809 8.50879s4.83008 3.76855 7.89648 3.76855h8.68262c4.60742 0 8.6377 -3.10059 9.82031 -7.55469c2.27148 -8.55957 7.71875 -19.9414 28.7148 -19.9414h2.03125c9.04004 0 30.0684 3.00977 30.0684 30.8809v4.06348
c0 27.8711 -21.0273 30.8799 -30.0684 30.8799h-2.03125c-11.0703 0 -25.9395 -4.82324 -31.4111 -18.4189c-1.92383 -4.78125 -7.12402 -7.36426 -12.0977 -6.00879l-6.70508 1.8291c-4.57617 1.24805 -7.68066 5.49902 -7.47656 10.2383l3.8623 89.5947
c0.233398 5.43555 4.70801 9.7207 10.1484 9.7207h92.4395c5.61035 0 10.1582 -4.54883 10.1582 -10.1582v-8.12695c0 -5.61035 -4.54785 -10.1592 -10.1582 -10.1592h-74.9775l-1.52637 -36.5127c8.38965 3.95801 18.127 6.03906 28.7578 6.03906zM495.89 371.702
c10.9766 -2.3252 17.9902 -13.1094 15.665 -24.0869l-67.7236 -319.656c-1.98926 -9.38867 -10.2783 -16.1055 -19.876 -16.1055h-335.91c-9.59766 0 -17.8857 6.7168 -19.876 16.1055l-67.7236 319.656c-2.3252 10.9775 4.68848 21.7617 15.666 24.0869
c10.9746 2.32617 21.7607 -4.68652 24.0869 -15.6641l5.75684 -27.1709c13.7002 -1.20703 22.4375 -4.16113 30.3369 -6.84668c8.62793 -2.93457 15.4443 -5.25 30.709 -5.25c15.2637 0 22.0781 2.31543 30.7061 5.25c10.2207 3.47559 21.8047 7.41309 43.7891 7.41309
c21.9824 0 33.5664 -3.93945 43.7871 -7.41309c8.62793 -2.93457 15.4434 -5.25 30.709 -5.25s22.082 2.31543 30.7109 5.25c10.2207 3.47363 21.8057 7.41113 43.7891 7.41113s33.5684 -3.9375 43.7891 -7.41113c8.63086 -2.93457 15.4463 -5.25 30.7148 -5.25
c15.2666 0 22.082 2.31543 30.7119 5.25c7.89941 2.68555 16.6367 5.63965 30.3389 6.84668l5.75586 27.1709c2.32715 10.9766 13.1094 17.9873 24.0869 15.6641zM407.491 52.4873l49.5059 233.669c-2.78027 -0.765625 -5.40234 -1.65234 -8.21289 -2.6084
c-10.2197 -3.47461 -21.8047 -7.41211 -43.7891 -7.41211c-21.9863 0 -33.5723 3.93945 -43.793 7.41309c-8.62891 2.93262 -15.4453 5.25 -30.7109 5.25s-22.0811 -2.31641 -30.7109 -5.25c-10.2207 -3.47559 -21.8057 -7.41309 -43.79 -7.41309
c-21.9824 0 -33.5664 3.93945 -43.7871 7.41309c-8.62793 2.93262 -15.4434 5.25 -30.709 5.25s-22.0801 -2.31738 -30.71 -5.25098c-10.2197 -3.47461 -21.8027 -7.41211 -43.7842 -7.41211c-21.9834 0 -33.5674 3.93945 -43.7881 7.41309
c-2.80859 0.955078 -5.42969 1.84375 -8.20898 2.60938l49.5059 -233.671h302.982z" />
    <glyph glyph-name="uniF11C" unicode="&#xf11c;" 
d="M495.89 371.702c10.9766 -2.3252 17.9902 -13.1094 15.665 -24.0869l-67.7236 -319.656c-1.98926 -9.38867 -10.2783 -16.1055 -19.876 -16.1055h-335.91c-9.59766 0 -17.8857 6.7168 -19.876 16.1055l-67.7236 319.656c-2.3252 10.9775 4.68848 21.7617 15.665 24.0869
c10.9736 2.32617 21.7607 -4.68652 24.0869 -15.6641l5.75586 -27.1709c13.7012 -1.20703 22.4375 -4.16113 30.3369 -6.84668c8.62891 -2.93457 15.4434 -5.25 30.71 -5.25c15.2646 0 22.0791 2.31543 30.707 5.25c10.2207 3.47559 21.8047 7.41309 43.7891 7.41309
c21.9824 0 33.5664 -3.93945 43.7871 -7.41309c8.62793 -2.93457 15.4434 -5.25 30.709 -5.25s22.082 2.31543 30.7109 5.25c10.2207 3.47363 21.8057 7.41113 43.7891 7.41113c21.9844 0 33.5693 -3.9375 43.79 -7.41113c8.62988 -2.93457 15.4453 -5.25 30.7129 -5.25
s22.083 2.31543 30.7129 5.25c7.90039 2.68555 16.6367 5.63965 30.3389 6.84668l5.75586 27.1709c2.32715 10.9766 13.1094 17.9883 24.0869 15.6641zM407.491 52.4873l49.5088 233.671c-2.78223 -0.767578 -5.40234 -1.6543 -8.21289 -2.60938
c-10.2227 -3.47559 -21.8076 -7.41309 -43.792 -7.41309c-21.9863 0 -33.5703 3.9375 -43.792 7.41211c-8.62891 2.93359 -15.4463 5.25098 -30.7119 5.25098s-22.0811 -2.31641 -30.7109 -5.25c-10.2207 -3.47559 -21.8057 -7.41309 -43.79 -7.41309
c-21.9824 0 -33.5664 3.93945 -43.7871 7.41309c-8.62793 2.93262 -15.4434 5.25 -30.709 5.25s-22.0801 -2.31738 -30.71 -5.25098c-10.2197 -3.47461 -21.8027 -7.41211 -43.7842 -7.41211c-21.9834 0 -33.5684 3.93945 -43.7891 7.41309
c-2.80957 0.955078 -5.42871 1.84375 -8.20801 2.60938l49.5059 -233.671h302.982zM331.317 246.321c7.93457 -7.93457 7.93457 -20.7979 -0.00292969 -28.7324l-46.585 -46.5859l46.585 -46.5859c7.93457 -7.93457 7.93457 -20.7979 0 -28.7324
c-3.96582 -3.96875 -9.16602 -5.95117 -14.3662 -5.95117c-5.19824 0 -10.3975 1.98438 -14.3652 5.95117l-46.5859 46.585l-46.5859 -46.585c-3.96582 -3.96875 -9.16504 -5.95117 -14.3652 -5.95117c-5.19824 0 -10.3984 1.98438 -14.3652 5.95117
c-7.93457 7.93457 -7.93457 20.7979 0 28.7324l46.5859 46.5859l-46.5859 46.5859c-7.93457 7.93457 -7.93457 20.7979 0 28.7324s20.7988 7.93457 28.7324 0l46.5859 -46.5859l46.585 46.5859c7.93457 7.93457 20.7998 7.93457 28.7334 0z" />
    <glyph glyph-name="uniF122" unicode="&#xf122;" 
d="M256 -4.92285c-108.583 0 -196.923 88.3398 -196.923 196.923s88.3398 196.923 196.923 196.923s196.923 -88.3398 196.923 -196.923s-88.3398 -196.923 -196.923 -196.923zM256 349.538c-86.8672 0 -157.538 -70.6709 -157.538 -157.538
s70.6709 -157.538 157.538 -157.538s157.538 70.6709 157.538 157.538s-70.6709 157.538 -157.538 157.538zM492.308 448c10.876 0 19.6924 -8.81641 19.6924 -19.6924v-472.615c0 -10.876 -8.81641 -19.6924 -19.6924 -19.6924h-472.615
c-10.875 0 -19.6924 8.81641 -19.6924 19.6924v472.615c0 10.876 8.81738 19.6924 19.6924 19.6924h472.615zM472.615 -24.6152v433.23h-433.23v-433.23h433.23zM183.795 192c0 21.8802 10.9401 32.8203 32.8203 32.8203s32.8203 -10.9401 32.8203 -32.8203
s-10.9401 -32.8203 -32.8203 -32.8203s-32.8203 10.9401 -32.8203 32.8203zM262.564 192c0 21.8802 10.9401 32.8203 32.8203 32.8203s32.8203 -10.9401 32.8203 -32.8203s-10.9401 -32.8203 -32.8203 -32.8203s-32.8203 10.9401 -32.8203 32.8203z" />
    <glyph glyph-name="uniF11A" unicode="&#xf11a;" 
d="M511.331 113.612c0.4375 -1.60742 0.668945 -3.2998 0.669922 -5.0459c0 -10.6025 -8.59473 -19.1992 -19.1992 -19.1992c-0.00878906 0.00195312 -0.0185547 0.00195312 -0.0253906 0h-124.888l-19.1992 19.1992l19.1992 19.1992h101.16l-20.8311 97.6455h-228.715
c-48.7754 0 -94.1748 -20.708 -134.938 -61.5488c-12.5957 -12.6201 -22.8174 -25.3506 -30.5566 -36.0967h166.87l19.1992 -19.1992l-19.1992 -19.1992h-201.683c-6.67578 0 -12.8711 3.46777 -16.3623 9.15723c-3.49316 5.68945 -3.77734 12.7842 -0.755859 18.7354
c0.761719 1.49902 19.041 37.1006 54.4219 72.8359c47.7471 48.2236 104.112 73.7129 163.002 73.7129h221.174l-12.1357 62.8223h-198.317c-10.6025 0 -19.1992 8.59668 -19.1992 19.1992c0 10.6035 8.59668 19.1992 19.1992 19.1992h214.163
c9.2002 0 17.1064 -6.52539 18.8516 -15.5576l21.2852 -110.188zM321.537 108.566l56.8203 -56.8213c7.49805 -7.49805 7.49805 -19.6553 0 -27.1514c-3.74707 -3.74805 -8.66211 -5.62305 -13.5752 -5.62305c-4.91211 0 -9.8252 1.87402 -13.5742 5.62305l-56.8223 56.8213
l-56.8223 -56.8203c-3.74805 -3.74805 -8.66309 -5.62305 -13.5752 -5.62305s-9.82617 1.87402 -13.5752 5.62305c-7.49805 7.49805 -7.49805 19.6553 0 27.1514l56.8203 56.8213l-56.8203 56.8203c-7.49805 7.49805 -7.49805 19.6553 0 27.1514
c7.49805 7.49707 19.6543 7.49707 27.1514 0l56.8213 -56.8213l56.8203 56.8203c7.49805 7.49707 19.6553 7.49707 27.1514 0c7.49805 -7.49805 7.49805 -19.6543 0 -27.1514z" />
    <glyph glyph-name="uniF114" unicode="&#xf114;" 
d="M256 448c122.746 0 222.608 -99.8623 222.608 -222.608c0 -122.747 -99.8623 -222.609 -222.608 -222.609s-222.608 99.8623 -222.608 222.609c0 122.746 99.8623 222.608 222.608 222.608zM256 47.3047c98.1973 0 178.087 79.8896 178.087 178.087
s-79.8896 178.087 -178.087 178.087s-178.087 -79.8896 -178.087 -178.087s79.8896 -178.087 178.087 -178.087zM278.817 340.987l66.2217 -221.671c0.605469 -1.62793 0.936523 -3.38965 0.936523 -5.22754c0 -8.28125 -6.71289 -14.9922 -14.9922 -14.9922
c-0.00683594 -0.00195312 -0.0175781 0 -0.0292969 0h-12.3984c-6.62793 0 -12.4688 4.35254 -14.3643 10.7031l-14.5566 48.751h-67.501l-14.3096 -48.6904c-1.87402 -6.38184 -7.73145 -10.7637 -14.3818 -10.7637h-12.3975c-4.7373 0 -9.19434 2.23633 -12.0225 6.03516
c-2.8291 3.79785 -3.69727 8.70898 -2.3418 13.2471l66.5 222.608c1.89844 6.34863 7.73828 10.7002 14.3643 10.7002h16.9082c6.62598 0 12.4678 -4.35156 14.3643 -10.7002zM234.113 199.244h43.5312l-21.6924 73.4307zM304.971 -19.4785
c12.2939 0 22.2607 -9.9668 22.2607 -22.2607s-9.9668 -22.2607 -22.2607 -22.2607h-97.9414c-12.2939 0 -22.2607 9.9668 -22.2607 22.2607s9.9668 22.2607 22.2607 22.2607h97.9414z" />
    <glyph glyph-name="uniF11B" unicode="&#xf11b;" 
d="M256 -4.92285c-108.583 0 -196.923 88.3398 -196.923 196.923s88.3398 196.923 196.923 196.923s196.923 -88.3398 196.923 -196.923s-88.3398 -196.923 -196.923 -196.923zM256 349.538c-86.8682 0 -157.538 -70.6709 -157.538 -157.538
s70.6709 -157.538 157.538 -157.538s157.538 70.6709 157.538 157.538s-70.6709 157.538 -157.538 157.538zM492.308 448c10.876 0 19.6924 -8.81641 19.6924 -19.6924v-472.615c0 -10.876 -8.81641 -19.6924 -19.6924 -19.6924h-472.615
c-10.875 0 -19.6924 8.81641 -19.6924 19.6924v472.615c0 10.876 8.81738 19.6924 19.6924 19.6924h472.615zM472.615 -24.6152v433.23h-433.23v-433.23h433.23zM169.871 105.871c-7.69043 7.68945 -7.69043 20.1582 0 27.8477l58.2803 58.2812l-58.2812 58.2803
c-7.69043 7.69043 -7.69043 20.1592 0 27.8486s20.1592 7.68945 27.8486 0l58.2812 -58.2803l58.2812 58.2812c7.69043 7.68945 20.1602 7.68945 27.8486 0c7.69043 -7.69043 7.69043 -20.1592 0 -27.8486l-58.2812 -58.2812l58.2803 -58.2803
c7.69043 -7.69043 7.69043 -20.1592 0 -27.8486c-3.84375 -3.8457 -8.88379 -5.76855 -13.9238 -5.76855s-10.0801 1.92285 -13.9238 5.76758l-58.2812 58.2812l-58.2812 -58.2803c-3.84375 -3.8457 -8.88379 -5.76855 -13.9238 -5.76855s-10.0801 1.92285 -13.9238 5.76855
z" />
    <glyph glyph-name="uniF124" unicode="&#xf124;" 
d="M256 448c141.158 0 256 -114.842 256 -256s-114.842 -256 -256 -256s-256 114.842 -256 256s114.842 256 256 256zM256 -12.7998c112.927 0 204.8 91.873 204.8 204.8s-91.8711 204.8 -204.8 204.8s-204.8 -91.873 -204.8 -204.8s91.8711 -204.8 204.8 -204.8z" />
    <glyph glyph-name="uniF104" unicode="&#xf104;" 
d="M495.89 401.274c10.9766 -2.3252 17.9902 -13.1094 15.665 -24.0869l-67.7236 -319.656c-1.98926 -9.38867 -10.2783 -16.1055 -19.876 -16.1055h-335.91c-9.59766 0 -17.8857 6.7168 -19.876 16.1055l-67.7236 319.656c-2.3252 10.9775 4.68848 21.7617 15.666 24.0869
c10.9746 2.32422 21.7607 -4.6875 24.0869 -15.6641l5.75684 -27.1709c13.7002 -1.20703 22.4375 -4.16113 30.3369 -6.84668c8.62793 -2.93457 15.4443 -5.25 30.709 -5.25c15.2637 0 22.0781 2.31543 30.7061 5.25c10.2207 3.47559 21.8047 7.41309 43.7891 7.41309
c21.9824 0 33.5664 -3.93945 43.7871 -7.41309c8.62793 -2.93457 15.4434 -5.25 30.709 -5.25s22.082 2.31543 30.7109 5.25c10.2207 3.47363 21.8057 7.41113 43.7891 7.41113s33.5684 -3.9375 43.7891 -7.41113c8.63086 -2.93457 15.4463 -5.25 30.7148 -5.25
c15.2666 0 22.082 2.31543 30.7119 5.25c7.89941 2.68555 16.6367 5.63965 30.3389 6.84668l5.75586 27.1709c2.32715 10.9766 13.1094 17.9912 24.0869 15.6641zM407.491 82.0596l49.5059 233.668c-2.78027 -0.765625 -5.40234 -1.65234 -8.21289 -2.60938
c-10.2197 -3.47363 -21.8047 -7.41113 -43.7891 -7.41113c-21.9863 0 -33.5723 3.93848 -43.793 7.41309c-8.62891 2.93262 -15.4453 5.25 -30.7109 5.25s-22.0811 -2.31641 -30.7109 -5.25c-10.2207 -3.47559 -21.8057 -7.41309 -43.79 -7.41309
c-21.9824 0 -33.5664 3.93848 -43.7871 7.41309c-8.62793 2.93262 -15.4434 5.25 -30.709 5.25s-22.0801 -2.31738 -30.71 -5.25195c-10.2197 -3.47363 -21.8027 -7.41113 -43.7842 -7.41113c-21.9834 0 -33.5674 3.93848 -43.7881 7.41309
c-2.80859 0.955078 -5.42969 1.84277 -8.20898 2.6084l49.5059 -233.669h302.982zM250.208 185.001c5.61035 0 10.1592 -4.54785 10.1592 -10.1582v-8.12695c0 -5.61035 -4.54883 -10.1582 -10.1592 -10.1582h-19.2998v-34.5381
c0 -5.61035 -4.54785 -10.1582 -10.1582 -10.1582h-8.12598c-5.61035 0 -10.1582 4.54785 -10.1582 10.1582v34.5381h-59.9326c-5.61035 0 -10.1592 4.54785 -10.1592 10.1582v5.0791c0 1.95312 0.563477 3.86426 1.62207 5.50488l70.0908 108.692
c1.87109 2.90137 5.08594 4.6543 8.53711 4.6543h8.12598c5.61035 0 10.1582 -4.54883 10.1582 -10.1582v-95.4873h19.2998zM172.855 184.99l1.06152 0.0107422l28.5469 0.00195312v45.9912zM322.334 292.677c36.4102 0 57.293 -21.1045 57.293 -57.9023v-67.0439
c0 -36.7988 -20.8828 -57.9023 -57.293 -57.9023c-36.4111 0 -57.293 21.1035 -57.293 57.9023v67.0439c0 36.7979 20.8838 57.9023 57.293 57.9023zM322.943 137.867c20.2891 0 27.833 8.64453 27.833 31.8965v62.9805c0 23.252 -7.54395 31.8965 -27.833 31.8965h-1.21875
c-20.29 0 -27.833 -8.64551 -27.833 -31.8965v-62.9805c0 -23.252 7.54297 -31.8965 27.833 -31.8965h1.21875zM219.427 22.9141c11.2197 0 20.3164 -9.09668 20.3164 -20.3174s-9.09668 -20.3174 -20.3164 -20.3174h-89.3906c-11.2197 0 -20.3164 9.09668 -20.3164 20.3174
s9.09668 20.3174 20.3164 20.3174h89.3906zM381.964 22.9141c11.2197 0 20.3164 -9.09668 20.3164 -20.3174s-9.09668 -20.3174 -20.3164 -20.3174h-89.3906c-11.2197 0 -20.3164 9.09668 -20.3164 20.3174s9.09668 20.3174 20.3164 20.3174h89.3906z" />
    <glyph glyph-name="uniF105" unicode="&#xf105;" 
d="M495.89 371.702c10.9766 -2.32715 17.9902 -13.1094 15.665 -24.0879l-67.7236 -319.656c-1.98926 -9.38965 -10.2783 -16.1064 -19.876 -16.1064h-335.91c-9.59766 0 -17.8867 6.7168 -19.876 16.1064l-67.7236 319.656
c-2.32715 10.9785 4.68848 21.7607 15.665 24.0879c10.9863 2.32617 21.7617 -4.6875 24.0869 -15.6641l5.75586 -27.1709c13.7012 -1.20703 22.4385 -4.16113 30.3379 -6.84668c8.62793 -2.93457 15.4424 -5.25 30.709 -5.25c15.2627 0 22.0771 2.31738 30.7051 5.25
c10.2217 3.47559 21.8066 7.41309 43.7891 7.41309s33.5664 -3.93945 43.7881 -7.41309c8.62793 -2.93457 15.4434 -5.25 30.708 -5.25c15.2676 0 22.084 2.31543 30.7129 5.25c10.2197 3.47363 21.8047 7.41113 43.7881 7.41113
c21.9824 0 33.5674 -3.9375 43.7881 -7.41113c8.63086 -2.93457 15.4482 -5.25 30.7158 -5.25s22.083 2.31543 30.7129 5.25c7.90039 2.68555 16.6367 5.63965 30.3389 6.84668l5.75586 27.1709c2.32617 10.9756 13.0967 17.9922 24.0869 15.6641zM407.491 52.4863
l49.5059 233.67c-2.78027 -0.766602 -5.40234 -1.65332 -8.21289 -2.61035c-10.2207 -3.47363 -21.8057 -7.41113 -43.7891 -7.41113c-21.9844 0 -33.5703 3.93848 -43.792 7.41309c-8.62891 2.93262 -15.4463 5.25 -30.7119 5.25
c-15.2666 0 -22.082 -2.31738 -30.7109 -5.25c-10.2217 -3.47559 -21.8066 -7.41309 -43.79 -7.41309c-21.9814 0 -33.5664 3.93848 -43.7871 7.41309c-8.62793 2.93262 -15.4424 5.25 -30.709 5.25c-15.2656 0 -22.082 -2.31738 -30.71 -5.25195
c-10.2207 -3.47363 -21.8027 -7.41113 -43.7842 -7.41113c-21.9824 0 -33.5674 3.93848 -43.7881 7.41309c-2.81055 0.955078 -5.43164 1.84277 -8.21094 2.6084l49.5078 -233.67h302.982zM250.207 155.428c5.61133 0 10.1582 -4.54785 10.1582 -10.1582v-8.12695
c0 -5.61035 -4.54688 -10.1592 -10.1582 -10.1592h-19.2998v-34.5371c0 -5.61035 -4.54688 -10.1592 -10.1592 -10.1592h-8.125c-5.61133 0 -10.1582 4.54883 -10.1582 10.1592v34.5371h-59.9336c-5.61133 0 -10.1582 4.54883 -10.1582 10.1592v5.0791
c0 1.95312 0.563477 3.86426 1.62109 5.50488l70.0918 108.692c1.87012 2.90137 5.08594 4.6543 8.53711 4.6543h8.125c5.6123 0 10.1592 -4.54883 10.1592 -10.1592v-95.4863h19.2998zM172.855 155.417l1.06348 0.0107422l28.5449 0.000976562v45.9912zM322.333 263.104
c36.4111 0 57.293 -21.1045 57.293 -57.9023v-67.0439c0 -36.7988 -20.8818 -57.9023 -57.293 -57.9023s-57.293 21.1035 -57.293 57.9023v67.0439c0 36.7979 20.8818 57.9023 57.293 57.9023zM322.943 108.293c20.2891 0 27.833 8.64648 27.833 31.8965v62.9805
c0 23.2529 -7.54297 31.8975 -27.833 31.8975h-1.21875c-20.29 0 -27.833 -8.64648 -27.833 -31.8975v-62.9805c0 -23.252 7.54297 -31.8965 27.833 -31.8965h1.21875z" />
    <glyph glyph-name="uniF126" unicode="&#xf126;" 
d="M511.331 78.415c0.435547 -1.6084 0.668945 -3.2998 0.667969 -5.0459c0 -10.6025 -8.59668 -19.1992 -19.1992 -19.1992h-0.0253906h-473.577c-6.6748 0 -12.8701 3.46777 -16.3623 9.15723c-3.49121 5.68848 -3.77832 12.7832 -0.754883 18.7354
c0.759766 1.49902 19.0391 37.1006 54.4199 72.8359c47.7471 48.2227 104.111 73.7129 163.001 73.7129h221.173l-12.1348 62.8223h-198.317c-10.6025 0 -19.1982 8.5957 -19.1982 19.1982c0 10.6035 8.5957 19.1992 19.1982 19.1992h214.164
c9.19922 0 17.1055 -6.52539 18.8496 -15.5576l21.293 -110.222zM54.0078 92.5684h415.041l-20.8311 97.6445h-228.714c-48.7754 0 -94.1748 -20.708 -134.938 -61.5479c-12.5967 -12.6201 -22.8184 -25.3506 -30.5586 -36.0967zM204.623 141.39
c0 17.0664 8.53288 25.5996 25.5986 25.5996s25.5986 -8.5332 25.5986 -25.5996c0 -17.0658 -8.53288 -25.5986 -25.5986 -25.5986s-25.5986 8.53288 -25.5986 25.5986zM281.42 141.39c0 17.0664 8.53287 25.5996 25.5986 25.5996s25.5986 -8.5332 25.5986 -25.5996
c0 -17.0658 -8.53287 -25.5986 -25.5986 -25.5986s-25.5986 8.53288 -25.5986 25.5986z" />
    <glyph glyph-name="uniF12F" unicode="&#xf12f;" 
d="M495.89 371.702c10.9766 -2.3252 17.9902 -13.1094 15.665 -24.0869l-67.7236 -319.656c-1.98926 -9.38867 -10.2783 -16.1055 -19.876 -16.1055h-335.91c-9.59766 0 -17.8857 6.7168 -19.876 16.1055l-67.7236 319.656c-2.3252 10.9775 4.68848 21.7617 15.665 24.0869
c10.9775 2.32617 21.7607 -4.68652 24.0869 -15.6641l5.75586 -27.1709c13.7012 -1.20703 22.4375 -4.16113 30.3369 -6.84668c8.62891 -2.93457 15.4434 -5.25 30.71 -5.25c15.2646 0 22.0791 2.31543 30.707 5.25c10.2207 3.47559 21.8057 7.41309 43.7891 7.41309
c21.9824 0 33.5664 -3.93945 43.7871 -7.41309c8.62793 -2.93457 15.4434 -5.25 30.709 -5.25s22.082 2.31543 30.7109 5.25c10.2207 3.47363 21.8057 7.41113 43.7891 7.41113c21.9844 0 33.5693 -3.9375 43.79 -7.41113c8.62988 -2.93457 15.4453 -5.25 30.7129 -5.25
s22.083 2.31543 30.7129 5.25c7.90039 2.68555 16.6377 5.63965 30.3389 6.84668l5.75586 27.1709c2.32617 10.9766 13.1104 17.9883 24.0869 15.6641zM407.491 52.4873l49.5078 233.671c-2.78125 -0.767578 -5.40137 -1.6543 -8.21191 -2.60938
c-10.2227 -3.47559 -21.8076 -7.41309 -43.792 -7.41309c-21.9863 0 -33.5703 3.9375 -43.792 7.41211c-8.62891 2.93359 -15.4463 5.25 -30.7119 5.25s-22.0811 -2.31641 -30.7109 -5.25c-10.2207 -3.47559 -21.8057 -7.41309 -43.79 -7.41309
c-21.9824 0 -33.5664 3.93848 -43.7871 7.41309c-8.62793 2.93359 -15.4434 5.25 -30.709 5.25s-22.0801 -2.31641 -30.71 -5.25c-10.2197 -3.47461 -21.8027 -7.41211 -43.7842 -7.41211c-21.9834 0 -33.5684 3.93945 -43.7891 7.41309
c-2.80957 0.955078 -5.42871 1.84375 -8.20801 2.60938l49.5059 -233.671h302.982z" />
    <glyph glyph-name="uniF125" unicode="&#xf125;" 
d="M495.891 336.28c10.9775 -2.32617 17.9902 -13.1104 15.666 -24.0869l-67.7246 -319.657c-1.98926 -9.38965 -10.2773 -16.1064 -19.876 -16.1064h-335.911c-9.59766 0 -17.8877 6.7168 -19.876 16.1064l-67.7236 319.657
c-2.32617 10.9766 4.6875 21.7607 15.6641 24.0879c10.9756 2.32812 21.7617 -4.68652 24.0869 -15.665l5.75684 -27.1709c13.6992 -1.20605 22.4365 -4.16113 30.3359 -6.84668c8.62891 -2.93262 15.4443 -5.24902 30.71 -5.24902
c15.2637 0 22.0791 2.31641 30.707 5.24902c4.53516 1.54297 9.34668 3.17383 15.21 4.5127l54.0508 54.1084c21.5078 21.5078 62.2666 32.4258 62.2705 32.3955c9.41406 2.70215 28.1406 10.1553 49.6514 29.9551l19.9941 -19.9941
c-35.4434 -30.249 -73.4766 -39.8203 -73.4766 -39.8203c-15.8418 -3.86328 -28.7764 -13.5986 -38.0752 -22.8984l-31.458 -31.4912c13.1787 -1.25488 21.6885 -4.14355 29.4102 -6.76855c8.62793 -2.93262 15.4434 -5.25 30.709 -5.25s22.082 2.31738 30.7119 5.25
c10.2197 3.47461 21.8037 7.41211 43.7871 7.41211c21.9844 0 33.5684 -3.9375 43.79 -7.41211c3.42578 -1.16309 6.57129 -2.22754 10.0674 -3.0918c3.72949 11.832 9.82324 25.4443 19.7861 38.8184l20.1729 -20.1729
c-5.65918 -7.40723 -9.51367 -14.3223 -12.1338 -20.6016c10.4775 0.619141 16.3926 2.62012 23.5352 5.04785c7.89844 2.68555 16.6357 5.63965 30.3379 6.84668l5.75684 27.1709c2.3252 10.9766 13.1143 17.9932 24.0869 15.665zM299.782 248.125
c-10.2217 -3.47266 -21.8076 -7.41211 -43.792 -7.40918c-21.9824 0 -33.5664 3.9375 -43.7871 7.41211c-1.04395 0.354492 -2.06055 0.700195 -3.06934 1.03418l-55.9766 -56.0127c-6.91602 -6.91406 -6.94043 -18.0967 -0.0253906 -25.0117
c6.29199 -6.29102 16.8008 -8.01465 23.0947 -1.71973l69.5742 69.582c1.11133 1.10938 2.90723 1.1084 4.01562 0v-0.00195312c1.10742 -1.1084 1.10742 -2.90527 -0.00195312 -4.01465l-90.9033 -90.9219c-6.91309 -6.91406 -6.91309 -18.124 0 -25.0381
c6.84375 -6.84375 17.8965 -6.91016 24.8271 -0.203125l82.46 82.46c1.12598 1.12402 2.9502 1.12402 4.0752 -0.00195312c1.12598 -1.12598 1.12695 -2.95117 0.000976562 -4.07617c0 0 -59.7295 -59.6318 -59.749 -59.6572
c-6.10352 -6.10742 -4.77832 -16.8994 1.56543 -23.2422c6.91309 -6.91406 18.124 -6.91211 25.0371 0c0 0 91.3789 91.3809 93.1689 93.1699c1.85254 1.85352 3.30566 0.825195 3.69043 0.441406l0.00390625 -0.00292969
c0.385742 -0.385742 1.45117 -1.88672 -0.400391 -3.73926l-14.7441 -14.7451c5.65039 -5.64844 17.3105 -7.81152 25.5781 0.00195312c17.4707 16.5137 31.9326 34.7705 33.8535 56.7773c-6.72266 1.40723 -12.0664 3.2168 -17.0732 4.91895
c-8.62891 2.93359 -15.4453 5.25 -30.7129 5.25c-15.2656 0 -22.0811 -2.31641 -30.71 -5.25zM151.244 248.28c-4.82129 -6.90234 -4.16699 -16.4697 1.99414 -22.6309v-0.000976562c6.09082 -6.09082 16.6758 -7.89648 22.3984 -2.17285l27.4834 27.4922
c-5.54004 1.4541 -11.8467 2.40723 -21.625 2.40723c-14.9922 0 -21.8379 -2.23633 -30.251 -5.09473zM407.492 17.0645l49.5078 233.67c-2.78125 -0.766602 -5.40234 -1.65332 -8.21289 -2.60938c-9.90332 -3.36523 -21.1162 -7.15625 -41.7969 -7.38965
c-2.95898 -33.8242 -25.5674 -58.9619 -42.7842 -75.2373c-12.9717 -12.2578 -29.417 -15.0137 -43.7021 -11.5469l-63.0117 -63.0107c-17.1816 -17.1807 -44.5742 -18.083 -62.8252 -2.69727c-7.0957 -4.10645 -15.1865 -6.26465 -23.5859 -6.20117
c-12.2861 0.0898438 -23.8389 4.92578 -32.5283 13.6143l-0.00292969 0.00195312c-14.7852 14.7871 -17.5117 37.1328 -8.18457 54.7061c-14.4971 16.8691 -14.8867 41.7676 -1.18652 59.085c-7.25391 9.22852 -10.5156 20.5889 -9.79688 31.7383
c-3.74219 -0.297852 -7.82715 -0.474609 -12.3818 -0.474609c-21.9844 0 -33.5684 3.9375 -43.7881 7.41211c-2.80957 0.956055 -5.43066 1.84277 -8.20898 2.60938l49.5059 -233.67h302.983z" />
    <glyph glyph-name="uniF100" unicode="&#xf100;" 
d="M495.89 400.595c10.9766 -2.3252 17.9902 -13.1104 15.665 -24.0869l-67.7236 -319.656c-1.98926 -9.38867 -10.2783 -16.1055 -19.876 -16.1055h-335.91c-9.59766 0 -17.8857 6.7168 -19.876 16.1055l-67.7236 319.656c-2.3252 10.9766 4.68848 21.7617 15.666 24.0869
c10.9746 2.3252 21.7607 -4.68652 24.0869 -15.665l5.75684 -27.1699c13.7002 -1.20703 22.4375 -4.16113 30.3369 -6.84766c8.62793 -2.93359 15.4443 -5.25 30.709 -5.25c15.2637 0 22.0781 2.31836 30.7061 5.25c10.2207 3.47559 21.8047 7.41309 43.7891 7.41309
c21.9824 0 33.5664 -3.93848 43.7871 -7.41309c8.62793 -2.93359 15.4434 -5.25 30.709 -5.25s22.082 2.31641 30.7109 5.25c10.2207 3.47461 21.8057 7.41211 43.7891 7.41211s33.5684 -3.9375 43.7891 -7.41211c8.63086 -2.93359 15.4463 -5.25 30.7148 -5.25
c15.2656 0 22.082 2.31641 30.7119 5.25c7.89941 2.68652 16.6367 5.64062 30.3389 6.84766l5.75586 27.1699c2.32617 10.9775 13.1104 17.9883 24.0869 15.665zM407.491 81.3799l49.5059 233.667c-2.78027 -0.764648 -5.40234 -1.65234 -8.21289 -2.6084
c-10.2197 -3.47363 -21.8047 -7.41113 -43.7891 -7.41113c-21.9863 0 -33.5723 3.93848 -43.793 7.41309c-8.62891 2.93164 -15.4453 5.24902 -30.7109 5.24902s-22.0811 -2.31738 -30.7109 -5.24902c-10.2207 -3.47559 -21.8057 -7.41309 -43.79 -7.41309
c-21.9824 0 -33.5664 3.93848 -43.7871 7.41309c-8.62793 2.93164 -15.4434 5.24902 -30.709 5.24902s-22.0801 -2.31738 -30.71 -5.25098c-10.2197 -3.47363 -21.8027 -7.41113 -43.7842 -7.41113c-21.9834 0 -33.5674 3.93848 -43.7881 7.41309
c-2.80859 0.954102 -5.42969 1.84277 -8.20898 2.6084l49.5059 -233.669h302.982zM237.292 202.109c10.9766 -8.81543 16.9814 -21.8252 16.9814 -37.7002v-3.04785c0 -30.7422 -24.6465 -52.2129 -59.9355 -52.2129c-38.0879 0 -59.9336 22.2158 -59.9336 60.9502v2.03125
c0 5.61035 4.54883 10.1582 10.1592 10.1582h8.12695c5.60938 0 10.1582 -4.54785 10.1582 -10.1582c0 -31.3223 17.3916 -34.9443 30.4727 -34.9443h2.03223c5.02051 0 30.0674 1.14648 30.0674 23.7695v3.04688c0 21.8203 -19.3213 24.1758 -27.6279 24.1758h-23.7695
c-5.61035 0 -10.1592 4.54785 -10.1592 10.1582v7.7207c0 5.61035 4.54883 10.1592 10.1592 10.1592h22.7539c12.6025 0 27.6279 3.73535 27.6279 21.5342v1.42188c0 15.5205 -10.8604 24.7861 -29.0518 24.7861h-2.03223c-18.6562 0 -29.457 -6.04883 -29.457 -36.9746
c0 -5.61035 -4.54785 -10.1582 -10.1582 -10.1582h-8.12695c-5.61035 0 -10.1582 4.54785 -10.1582 10.1582v5.0791c0 38.6504 20.9238 59.9346 58.917 59.9346c35.792 0 58.9189 -20.3359 58.9189 -51.8076v-2.84473c0 -14.7969 -5.63672 -26.9365 -15.9648 -35.2354z
M320.304 291.997c36.4102 0 57.292 -21.1045 57.293 -57.9023v-67.0439c0 -36.7988 -20.8828 -57.9023 -57.293 -57.9023c-36.4111 0 -57.293 21.1055 -57.293 57.9023v67.0439c0 36.7979 20.8838 57.9023 57.293 57.9023zM320.912 137.188
c20.2881 0 27.833 8.64355 27.833 31.8965v62.9805c0 23.252 -7.54492 31.8965 -27.833 31.8965h-1.21875c-20.291 0 -27.834 -8.64551 -27.834 -31.8965v-62.9805c0 -23.2529 7.54297 -31.8965 27.834 -31.8965h1.21875zM300.695 23.5938
c11.2197 0 20.3164 -9.09473 20.3164 -20.3174c0 -11.2197 -9.09668 -20.3164 -20.3164 -20.3164h-89.3906c-11.2197 0 -20.3164 9.09668 -20.3164 20.3164c0 11.2207 9.09668 20.3174 20.3164 20.3174h89.3906z" />
    <glyph glyph-name="uniF110" unicode="&#xf110;" 
d="M192.509 292.678c29.832 0 59.9355 -20.1025 59.9355 -65.0117v-2.03125c0 -30.8301 -7.97266 -56.4766 -24.3711 -78.4102c-20.6201 -27.5703 -53.9307 -37.3936 -78.2275 -37.3936c-5.61133 0 -10.1582 4.54785 -10.1582 10.1582v8.12695
c0 5.61035 4.54688 10.1582 10.1582 10.1582c17.0098 0 40.4092 6.94238 55.0664 26.4238c2.11426 2.81934 4.07227 5.81445 5.86035 8.95508c-6.02734 -1.89453 -12.4961 -2.87402 -19.2793 -2.87402c-36.3408 0 -58.917 22.9648 -58.917 59.9326v2.03223
c0 36.9688 22.9648 59.9336 59.9326 59.9336zM191.9 264.234c-19.9365 0 -30.4727 -10.6787 -30.4717 -30.8809v-3.25098c0 -19.9131 10.4619 -30.8809 29.458 -30.8809h1.21875c13.584 0 25.2422 6.8252 31.5195 18.3535c0.25 2.82031 0.375 5.52344 0.375 8.05762v2.03223
c0 21.873 -12.4092 36.5693 -30.8799 36.5693h-1.21973zM319.488 231.729c35.8506 0 59.9355 -24.0869 59.9355 -59.9316v-2.03125c0 -35.8496 -24.085 -59.9346 -59.9355 -59.9346c-31.5596 0 -52.2168 15.3623 -58.167 43.2568
c-0.638672 2.99902 0.110352 6.125 2.03906 8.50879s4.83008 3.76758 7.89648 3.76758h8.68262c4.60645 0 8.63672 -3.09961 9.81836 -7.55371c2.27148 -8.56055 7.71875 -19.9414 28.7148 -19.9414h2.03125c9.04102 0 30.0684 3.00879 30.0684 30.8799v4.06348
c0 27.8711 -21.0273 30.8809 -30.0684 30.8809h-2.03125c-11.0703 0 -25.9395 -4.82324 -31.4102 -18.4189c-1.9248 -4.7832 -7.12793 -7.36426 -12.0986 -6.00879l-6.70312 1.82812c-4.57715 1.24805 -7.67969 5.49805 -7.47656 10.2373l3.86035 89.5947
c0.234375 5.43457 4.70801 9.7207 10.1484 9.7207h92.4404c5.6123 0 10.1592 -4.54785 10.1592 -10.1582v-8.12695c0 -5.61035 -4.54688 -10.1582 -10.1592 -10.1582h-74.9766l-1.52637 -36.5146c8.38965 3.95996 18.1279 6.04004 28.7578 6.04004zM495.89 401.274
c10.9766 -2.3252 17.9902 -13.1084 15.665 -24.0869l-67.7236 -319.656c-1.98926 -9.38867 -10.2783 -16.1055 -19.876 -16.1055h-335.91c-9.59766 0 -17.8867 6.7168 -19.876 16.1055l-67.7236 319.656c-2.32715 10.9785 4.68848 21.7617 15.665 24.0869
c10.9863 2.32617 21.7617 -4.6875 24.0869 -15.6641l5.75586 -27.1709c13.7012 -1.20703 22.4385 -4.16113 30.3379 -6.84668c8.62793 -2.93457 15.4424 -5.25 30.709 -5.25c15.2627 0 22.0771 2.31738 30.7051 5.25c10.2217 3.47363 21.8066 7.41309 43.791 7.41309
c21.9814 0 33.5664 -3.9375 43.7871 -7.41309c8.62793 -2.93457 15.4434 -5.25 30.709 -5.25c15.2676 0 22.083 2.31543 30.7129 5.25c10.2188 3.47363 21.8037 7.41113 43.7861 7.41113s33.5674 -3.9375 43.7881 -7.41113c8.63086 -2.93457 15.4482 -5.25 30.7158 -5.25
s22.083 2.31543 30.7129 5.25c7.90039 2.68555 16.6367 5.63965 30.3389 6.84668l5.75586 27.1709c2.32617 10.9756 13.0967 17.9912 24.0869 15.6641zM407.491 82.0596l49.5059 233.669c-2.78027 -0.766602 -5.40234 -1.65332 -8.21289 -2.61035
c-10.2217 -3.47363 -21.8057 -7.41113 -43.7891 -7.41113c-21.9844 0 -33.5713 3.93848 -43.792 7.41309c-8.62891 2.93262 -15.4463 5.25 -30.7119 5.25s-22.0811 -2.31738 -30.709 -5.25c-10.2207 -3.47559 -21.8047 -7.41309 -43.79 -7.41309
c-21.9824 0 -33.5674 3.93848 -43.7881 7.41309c-8.62793 2.93262 -15.4424 5.25 -30.708 5.25c-15.2676 0 -22.084 -2.31641 -30.7119 -5.25c-10.2207 -3.47461 -21.8027 -7.41211 -43.7842 -7.41211c-21.9824 0 -33.5674 3.93945 -43.7881 7.41309
c-2.81055 0.955078 -5.43164 1.84375 -8.21094 2.60938l49.5078 -233.671h302.982zM219.427 22.9141c11.2197 0 20.3164 -9.09668 20.3164 -20.3174s-9.09668 -20.3174 -20.3164 -20.3174h-89.3906c-11.2197 0 -20.3164 9.09668 -20.3164 20.3174
s9.09668 20.3174 20.3164 20.3174h89.3906zM381.964 22.9141c11.2197 0 20.3164 -9.09668 20.3164 -20.3174s-9.09668 -20.3174 -20.3164 -20.3174h-89.3906c-11.2197 0 -20.3164 9.09668 -20.3164 20.3174s9.09668 20.3174 20.3164 20.3174h89.3906z" />
    <glyph glyph-name="uniF11E" unicode="&#xf11e;" 
d="M492.308 448c10.876 0 19.6924 -8.81641 19.6924 -19.6924v-472.615c0 -10.876 -8.81641 -19.6924 -19.6924 -19.6924h-472.615c-10.875 0 -19.6924 8.81641 -19.6924 19.6924v472.615c0 10.876 8.81738 19.6924 19.6924 19.6924h472.615zM472.615 -24.6152v433.23
h-433.23v-433.23h433.23zM144.744 172.308c-10.876 0 -19.6924 8.81738 -19.6924 19.6924s8.81641 19.6924 19.6924 19.6924h222.512c10.876 0 19.6924 -8.81738 19.6924 -19.6924s-8.81641 -19.6924 -19.6924 -19.6924h-222.512z" />
    <glyph glyph-name="uniF10A" unicode="&#xf10a;" 
d="M495.89 371.702c10.9766 -2.3252 17.9902 -13.1094 15.665 -24.0869l-67.7236 -319.656c-1.98926 -9.38867 -10.2783 -16.1055 -19.876 -16.1055h-335.91c-9.59766 0 -17.8857 6.7168 -19.876 16.1055l-67.7236 319.656c-2.3252 10.9775 4.68848 21.7617 15.666 24.0869
c10.9785 2.32617 21.7607 -4.68652 24.0869 -15.6641l5.75684 -27.1709c13.7002 -1.20703 22.4365 -4.16113 30.3369 -6.84668c8.62793 -2.93457 15.4443 -5.25 30.709 -5.25c15.2637 0 22.0781 2.31543 30.7061 5.25c10.2207 3.47559 21.8047 7.41309 43.7891 7.41309
c21.9824 0 33.5664 -3.93945 43.7871 -7.41309c8.62793 -2.93457 15.4434 -5.25 30.709 -5.25s22.082 2.31543 30.7109 5.25c10.2207 3.47363 21.8057 7.41113 43.7891 7.41113s33.5684 -3.9375 43.7891 -7.41113c8.63086 -2.93457 15.4463 -5.25 30.7148 -5.25
c15.2666 0 22.082 2.31543 30.7119 5.25c7.89941 2.68555 16.6367 5.63965 30.3389 6.84668l5.75586 27.1709c2.32617 10.9766 13.1104 17.9873 24.0869 15.6641zM407.491 52.4873l49.5059 233.668c-2.78027 -0.765625 -5.40234 -1.65234 -8.21289 -2.60938
c-10.2197 -3.47363 -21.8047 -7.41113 -43.7891 -7.41113c-21.9863 0 -33.5723 3.93848 -43.793 7.41309c-8.62891 2.93359 -15.4453 5.25 -30.7109 5.25s-22.0811 -2.31641 -30.7109 -5.25c-10.2207 -3.47559 -21.8057 -7.41309 -43.79 -7.41309
c-21.9824 0 -33.5664 3.93848 -43.7871 7.41309c-8.62793 2.93359 -15.4434 5.25 -30.709 5.25s-22.0801 -2.31641 -30.71 -5.25c-10.2197 -3.47461 -21.8027 -7.41211 -43.7842 -7.41211c-21.9834 0 -33.5674 3.93945 -43.7881 7.41309
c-2.80859 0.955078 -5.42969 1.84375 -8.20898 2.60938l49.5059 -233.671h302.982zM195.861 202.156c36.3418 0 58.918 -22.9658 58.918 -59.9346v-2.03223c0 -36.9688 -22.9648 -59.9336 -59.9336 -59.9336c-29.8311 0 -59.9336 20.1025 -59.9336 65.0137v2.03125
c0 30.8311 7.97266 56.4795 24.3711 78.4092c20.6172 27.5703 53.9287 37.3945 78.2266 37.3945c5.61035 0 10.1592 -4.54785 10.1592 -10.1582v-8.12695c0 -5.61035 -4.54883 -10.1592 -10.1592 -10.1592c-17.0107 0 -40.4092 -6.94141 -55.0664 -26.4229
c-2.13281 -2.84473 -4.09863 -5.84277 -5.89453 -8.98828c6.0498 1.91797 12.5283 2.90723 19.3125 2.90723zM195.455 108.701c19.9365 0 30.4746 10.6787 30.4746 30.8809v3.24902c0 19.9141 -10.4619 30.8809 -29.459 30.8809h-1.21875
c-13.7295 0 -25.458 -6.88379 -31.71 -18.5049c-0.186523 -2.58398 -0.186523 -5.28125 -0.186523 -7.9043v-2.03223c0 -21.873 12.4092 -36.5693 30.8809 -36.5693h1.21875zM319.795 263.104c36.4102 0 57.293 -21.1045 57.293 -57.9023v-67.0439
c0 -36.7988 -20.8838 -57.9023 -57.293 -57.9023c-36.4102 0 -57.293 21.1055 -57.293 57.9023v67.0439c0 36.7979 20.8828 57.9023 57.293 57.9023zM320.404 108.295c20.29 0 27.833 8.64453 27.833 31.8965v62.9805c0 23.252 -7.54492 31.8965 -27.833 31.8965h-1.21973
c-20.29 0 -27.833 -8.64453 -27.833 -31.8965v-62.9805c0 -23.252 7.54492 -31.8965 27.833 -31.8965h1.21973z" />
    <glyph glyph-name="uniF128" unicode="&#xf128;" 
d="M197.718 141.39c0 17.0664 8.53288 25.5996 25.5986 25.5996c17.0664 0 25.5996 -8.5332 25.5996 -25.5996c0 -17.0658 -8.5332 -25.5986 -25.5996 -25.5986c-17.0658 0 -25.5986 8.53288 -25.5986 25.5986zM274.515 141.39c0 17.0664 8.53287 25.5996 25.5986 25.5996
s25.5986 -8.5332 25.5986 -25.5996c0 -17.0658 -8.53287 -25.5986 -25.5986 -25.5986s-25.5986 8.53288 -25.5986 25.5986zM351.311 141.39c0 17.0664 8.53287 25.5996 25.5986 25.5996s25.5986 -8.5332 25.5986 -25.5996c0 -17.0658 -8.53287 -25.5986 -25.5986 -25.5986
s-25.5986 8.53288 -25.5986 25.5986zM511.331 78.415c0.446259 -1.64797 0.668915 -3.32994 0.667969 -5.0459c0 -5.30127 -1.87454 -9.82646 -5.62366 -13.5756s-8.27429 -5.62366 -13.5756 -5.62366h-0.0253906h-473.577c-7.16106 0 -12.6152 3.05241 -16.3623 9.15723
c-3.74676 6.10485 -3.99838 12.35 -0.754883 18.7354c12.3717 24.4096 30.5117 48.6882 54.4199 72.8359c48.6573 49.1419 102.991 73.7129 163.001 73.7129h221.173l-12.1348 62.8223h-198.317c-5.30127 0 -9.82629 1.87439 -13.5751 5.62317
s-5.62317 8.2738 -5.62317 13.5751c0 5.3017 1.87437 9.827 5.62314 13.5759c3.74875 3.7489 8.27379 5.62335 13.5751 5.62335h214.163c10.5642 0 16.8478 -5.18588 18.8506 -15.5576l21.2842 -110.185zM54.0078 92.5684h415.041l-20.8311 97.6445h-228.714
c-49.004 0 -93.9831 -20.5159 -134.938 -61.5479c-10.9175 -10.9378 -21.1037 -22.97 -30.5586 -36.0967z" />
    <glyph glyph-name="uniF12D" unicode="&#xf12d;" 
d="M256 448c122.746 0 222.608 -99.8623 222.608 -222.608c0 -122.747 -99.8623 -222.609 -222.608 -222.609s-222.608 99.8623 -222.608 222.609c0 122.746 99.8623 222.608 222.608 222.608zM256 47.3047c98.1973 0 178.087 79.8896 178.087 178.087
s-79.8887 178.087 -178.087 178.087s-178.087 -79.8896 -178.087 -178.087s79.8887 -178.087 178.087 -178.087zM321.985 351.536c8.19629 0 14.8408 -6.64551 14.8398 -14.8408v-10.8447c0 -8.19531 -6.64453 -14.8408 -14.8408 -14.8408h-87.9053v-63.0723h73.6328
c8.19629 0 14.8408 -6.64648 14.8408 -14.8408v-10.8428c0 -8.19531 -6.64453 -14.8408 -14.8408 -14.8408h-73.6328v-93.3262c0 -8.19629 -6.64453 -14.8408 -14.8408 -14.8408h-11.415c-8.19629 0 -14.8408 6.64453 -14.8408 14.8408v222.608
c0 8.19531 6.64453 14.8408 14.8408 14.8408h114.162zM304.971 -19.4785c12.2939 0 22.2607 -9.9668 22.2607 -22.2607s-9.9668 -22.2607 -22.2607 -22.2607h-97.9414c-12.2939 0 -22.2607 9.9668 -22.2607 22.2607s9.9668 22.2607 22.2607 22.2607h97.9414z" />
    <glyph glyph-name="uniF112" unicode="&#xf112;" 
d="M509.018 -6.81152c4.09766 -7.43359 3.96484 -16.4814 -0.351562 -23.792c-4.31738 -7.30859 -12.1768 -11.7949 -20.666 -11.7949h-464c-8.48926 0 -16.3486 4.48633 -20.666 11.7949c-4.31836 7.31055 -4.45117 16.3574 -0.351562 23.792l232 420.797
c4.22266 7.6582 12.2734 12.4131 21.0176 12.4131s16.7949 -4.75488 21.0176 -12.4131zM64.6367 5.60156h382.727l-191.363 347.088z" />
    <glyph glyph-name="uniF119" unicode="&#xf119;" 
d="M256 448c141.158 0 256 -114.842 256 -256s-114.842 -256 -256 -256s-256 114.842 -256 256s114.842 256 256 256zM256 -12.7998c112.929 0 204.8 91.873 204.8 204.8s-91.8711 204.8 -204.8 204.8s-204.8 -91.873 -204.8 -204.8s91.8711 -204.8 204.8 -204.8z
M367.968 303.968c9.99707 -9.99609 9.99707 -26.2061 0 -36.2021l-75.7646 -75.7656l75.7646 -75.7637c9.99707 -9.99805 9.99707 -26.208 0 -36.2041c-4.99707 -4.99902 -11.5488 -7.49902 -18.1016 -7.49902c-6.55176 0 -13.1035 2.5 -18.1006 7.49902l-75.7656 75.7646
l-75.7656 -75.7646c-4.99707 -4.99902 -11.5488 -7.49902 -18.1006 -7.49902c-6.55273 0 -13.1045 2.5 -18.1016 7.49707c-9.99707 9.99805 -9.99707 26.208 0 36.2041l75.7646 75.7656l-75.7666 75.7637c-9.99707 9.99805 -9.99707 26.208 0 36.2041
c9.99805 9.99609 26.208 9.99609 36.2041 0l75.7656 -75.7646l75.7637 75.7646c9.99805 9.99609 26.208 9.99609 36.2041 0z" />
    <glyph glyph-name="uniF108" unicode="&#xf108;" 
d="M495.89 401.274c10.9766 -2.3252 17.9902 -13.1094 15.665 -24.0869l-67.7236 -319.656c-1.98926 -9.38867 -10.2783 -16.1055 -19.876 -16.1055h-335.91c-9.59766 0 -17.8857 6.7168 -19.876 16.1055l-67.7236 319.656c-2.3252 10.9775 4.68848 21.7617 15.666 24.0869
c10.9746 2.32422 21.7607 -4.6875 24.0869 -15.6641l5.75684 -27.1709c13.7002 -1.20703 22.4375 -4.16113 30.3369 -6.84668c8.62793 -2.93457 15.4443 -5.25 30.709 -5.25c15.2637 0 22.0781 2.31543 30.7061 5.25c10.2207 3.47559 21.8047 7.41309 43.7891 7.41309
c21.9824 0 33.5664 -3.93945 43.7871 -7.41309c8.62793 -2.93457 15.4434 -5.25 30.709 -5.25s22.082 2.31543 30.7109 5.25c10.2207 3.47363 21.8057 7.41113 43.7891 7.41113s33.5684 -3.9375 43.7891 -7.41113c8.63086 -2.93457 15.4463 -5.25 30.7148 -5.25
c15.2656 0 22.082 2.31543 30.7119 5.25c7.89941 2.68555 16.6367 5.63965 30.3389 6.84668l5.75586 27.1709c2.32617 10.9766 13.1104 17.9912 24.0869 15.6641zM407.491 82.0596l49.5059 233.668c-2.78027 -0.765625 -5.40234 -1.65234 -8.21289 -2.60938
c-10.2197 -3.47363 -21.8047 -7.41113 -43.7891 -7.41113c-21.9863 0 -33.5723 3.93848 -43.793 7.41309c-8.62891 2.93262 -15.4453 5.25 -30.7109 5.25s-22.0811 -2.31641 -30.7109 -5.25c-10.2207 -3.47559 -21.8057 -7.41309 -43.79 -7.41309
c-21.9824 0 -33.5664 3.93848 -43.7871 7.41309c-8.62793 2.93262 -15.4434 5.25 -30.709 5.25s-22.0801 -2.31738 -30.71 -5.25195c-10.2197 -3.47363 -21.8027 -7.41113 -43.7842 -7.41113c-21.9834 0 -33.5674 3.93848 -43.7881 7.41309
c-2.80859 0.955078 -5.42969 1.84277 -8.20898 2.6084l49.5059 -233.669h302.982zM193.728 231.729c35.8496 0 59.9346 -24.0859 59.9316 -59.9336v-2.03125c0 -35.8486 -24.085 -59.9346 -59.9336 -59.9346c-31.4727 0 -52.1123 15.292 -58.1182 43.0596
c-0.648438 3.00098 0.0947266 6.13574 2.02344 8.52637c1.92871 2.38867 4.83398 3.77832 7.90625 3.77832h8.65625c4.59766 0 8.62109 -3.08789 9.81152 -7.52832c2.27832 -8.49902 7.7334 -19.7979 28.7041 -19.7979h2.03223c9.04102 0 30.0684 3.00977 30.0684 30.8809
v4.06348c0 27.8711 -21.0273 30.8799 -30.0684 30.8799h-2.03223c-11.0693 0 -25.9395 -4.82324 -31.4102 -18.4189c-1.9248 -4.78125 -7.12305 -7.36133 -12.0977 -6.00879l-6.70508 1.8291c-4.5752 1.24805 -7.67969 5.49902 -7.47559 10.2383l3.86035 89.5947
c0.234375 5.43359 4.70801 9.7207 10.1494 9.7207h92.4404c5.61035 0 10.1582 -4.54883 10.1582 -10.1582v-8.12695c0 -5.61035 -4.54785 -10.1592 -10.1582 -10.1592h-74.9756l-1.52539 -36.5127c8.38965 3.95801 18.127 6.03906 28.7578 6.03906zM319.693 292.677
c36.4102 0 57.293 -21.1045 57.293 -57.9023v-67.0439c0 -36.7988 -20.8838 -57.9023 -57.293 -57.9023c-36.4102 0 -57.293 21.1035 -57.293 57.9023v67.0439c0 36.7979 20.8828 57.9023 57.293 57.9023zM320.304 137.867c20.2891 0 27.832 8.64453 27.833 31.8965v62.9805
c0 23.252 -7.54395 31.8965 -27.833 31.8965h-1.21875c-20.29 0 -27.833 -8.64551 -27.833 -31.8965v-62.9805c0 -23.252 7.54395 -31.8965 27.833 -31.8965h1.21875zM219.427 22.9141c11.2197 0 20.3164 -9.09668 20.3164 -20.3174s-9.09668 -20.3174 -20.3164 -20.3174
h-89.3906c-11.2197 0 -20.3164 9.09668 -20.3164 20.3174s9.09668 20.3174 20.3164 20.3174h89.3906zM381.964 22.9141c11.2197 0 20.3164 -9.09668 20.3164 -20.3174s-9.09668 -20.3174 -20.3164 -20.3174h-89.3906c-11.2197 0 -20.3164 9.09668 -20.3164 20.3174
s9.09668 20.3174 20.3164 20.3174h89.3906z" />
    <glyph glyph-name="uniF10E" unicode="&#xf10e;" 
d="M245.129 261.073c5.61035 0 10.1582 -4.54883 10.1582 -10.1572v-5.08008c0 -1.3125 -0.25293 -2.61133 -0.74707 -3.82617l-62.3721 -153.389c-1.55762 -3.82812 -5.27832 -6.33203 -9.41113 -6.33203h-8.73535c-3.38086 0 -6.53906 1.68164 -8.42773 4.48535
c-1.8877 2.80566 -2.25586 6.36426 -0.984375 9.49707l55.4209 136.434l-8.54004 -0.0732422l-45.5957 -0.00195312v-38.6006c0 -5.61035 -4.54785 -10.1592 -10.1582 -10.1592h-8.12598c-5.60938 0 -10.1582 4.54883 -10.1582 10.1592v56.8848
c0 5.61035 4.54883 10.1592 10.1582 10.1592h97.5186zM317.255 263.104c36.4111 0 57.293 -21.1045 57.293 -57.9023v-67.0439c0 -36.7988 -20.8838 -57.9023 -57.293 -57.9023c-36.4111 0 -57.293 21.1055 -57.293 57.9023v67.0439
c0 36.7979 20.8828 57.9023 57.293 57.9023zM317.864 108.295c20.29 0 27.833 8.64453 27.833 31.8965v62.9805c0 23.252 -7.54395 31.8965 -27.833 31.8965h-1.21875c-20.29 0 -27.833 -8.64453 -27.833 -31.8965v-62.9805c0 -23.252 7.54395 -31.8965 27.833 -31.8965
h1.21875zM495.89 371.702c10.9766 -2.3252 17.9902 -13.1094 15.665 -24.0869l-67.7236 -319.656c-1.98926 -9.38867 -10.2783 -16.1055 -19.876 -16.1055h-335.91c-9.59766 0 -17.8857 6.7168 -19.876 16.1055l-67.7236 319.656
c-2.3252 10.9775 4.68848 21.7617 15.666 24.0869c10.9727 2.32617 21.7607 -4.68652 24.0869 -15.6641l5.75684 -27.1709c13.7002 -1.20703 22.4365 -4.16113 30.3369 -6.84668c8.62793 -2.93457 15.4443 -5.25 30.709 -5.25c15.2637 0 22.0781 2.31738 30.7061 5.25
c10.2207 3.47559 21.8047 7.41309 43.7891 7.41309c21.9824 0 33.5664 -3.9375 43.7871 -7.41309c8.62793 -2.93457 15.4434 -5.25 30.709 -5.25s22.082 2.31543 30.7109 5.25c10.2207 3.47363 21.8057 7.41113 43.7891 7.41113s33.5684 -3.9375 43.7891 -7.41113
c8.63086 -2.93457 15.4463 -5.25 30.7148 -5.25c15.2666 0 22.082 2.31543 30.7119 5.25c7.89941 2.68555 16.6367 5.63965 30.3389 6.84668l5.75586 27.1709c2.32617 10.9766 13.1113 17.9873 24.0869 15.6641zM407.491 52.4873l49.5059 233.668
c-2.78027 -0.765625 -5.40234 -1.65234 -8.21289 -2.60938c-10.2197 -3.47363 -21.8047 -7.41113 -43.7891 -7.41113c-21.9863 0 -33.5723 3.93848 -43.793 7.41309c-8.62891 2.93262 -15.4453 5.25 -30.7109 5.25s-22.0811 -2.31738 -30.7109 -5.25
c-10.2207 -3.47559 -21.8057 -7.41309 -43.79 -7.41309c-21.9824 0 -33.5664 3.93848 -43.7871 7.41309c-8.62793 2.93262 -15.4434 5.25 -30.709 5.25s-22.0801 -2.31641 -30.71 -5.25c-10.2197 -3.47461 -21.8027 -7.41211 -43.7842 -7.41211
c-21.9834 0 -33.5674 3.93945 -43.7881 7.41309c-2.80859 0.955078 -5.42969 1.84375 -8.20898 2.60938l49.5059 -233.671h302.982z" />
    <glyph glyph-name="uniF120" unicode="&#xf120;" 
d="M492.308 448c10.876 0 19.6924 -8.81641 19.6924 -19.6924v-472.615c0 -10.876 -8.81641 -19.6924 -19.6924 -19.6924h-472.615c-10.875 0 -19.6924 8.81641 -19.6924 19.6924v472.615c0 10.876 8.81738 19.6924 19.6924 19.6924h472.615zM39.3848 275.629v-86.3057
l219.292 219.292h-86.3076zM116.672 408.615h-77.2871v-77.2881zM472.615 -24.6152v433.23h-158.24l-274.99 -274.99v-158.24h433.23z" />
    <glyph glyph-name="uniF103" unicode="&#xf103;" 
d="M495.89 400.595c10.9766 -2.3252 17.9902 -13.1104 15.665 -24.0869l-67.7236 -319.656c-1.98926 -9.38867 -10.2783 -16.1055 -19.876 -16.1055h-335.91c-9.59766 0 -17.8867 6.7168 -19.876 16.1055l-67.7236 319.656c-2.32715 10.9766 4.68848 21.7617 15.665 24.0869
c10.9863 2.32324 21.7617 -4.6875 24.0869 -15.665l5.75586 -27.1699c13.7012 -1.20703 22.4385 -4.16113 30.3379 -6.84766c8.62793 -2.93359 15.4424 -5.25 30.709 -5.25c15.2627 0 22.0771 2.31641 30.7051 5.25c10.2217 3.47559 21.8066 7.41309 43.7891 7.41309
s33.5664 -3.93848 43.7881 -7.41309c8.62793 -2.93359 15.4434 -5.25 30.708 -5.25c15.2676 0 22.084 2.31641 30.7129 5.25c10.2197 3.47461 21.8047 7.41211 43.7881 7.41211c21.9824 0 33.5674 -3.9375 43.7881 -7.41211c8.63086 -2.93359 15.4482 -5.25 30.7158 -5.25
s22.083 2.31641 30.7129 5.25c7.90039 2.68652 16.6367 5.64062 30.3389 6.84766l5.75586 27.1699c2.3252 10.9756 13.0938 17.9922 24.0869 15.665zM407.491 81.3799l49.5059 233.667c-2.78027 -0.766602 -5.40234 -1.65332 -8.21289 -2.60938
c-10.2207 -3.47461 -21.8057 -7.41211 -43.7891 -7.41211c-21.9844 0 -33.5703 3.93945 -43.792 7.41309c-8.62891 2.93359 -15.4463 5.25 -30.7119 5.25c-15.2666 0 -22.082 -2.31641 -30.7109 -5.25c-10.2217 -3.47559 -21.8066 -7.41309 -43.79 -7.41309
c-21.9814 0 -33.5664 3.93945 -43.7871 7.41309c-8.62793 2.93359 -15.4424 5.25 -30.709 5.25c-15.2656 0 -22.082 -2.31641 -30.71 -5.25c-10.2207 -3.47363 -21.8027 -7.41113 -43.7842 -7.41113c-21.9824 0 -33.5674 3.93848 -43.7881 7.41309
c-2.81055 0.954102 -5.43164 1.84277 -8.21094 2.6084l49.5078 -233.669h302.982zM250.207 184.321c5.61133 0 10.1582 -4.54785 10.1582 -10.1582v-8.12695c0 -5.61035 -4.54688 -10.1582 -10.1582 -10.1582h-19.2998v-34.5381
c0 -5.61035 -4.54688 -10.1582 -10.1592 -10.1582h-8.125c-5.61133 0 -10.1582 4.54785 -10.1582 10.1582v34.5381h-59.9336c-5.61133 0 -10.1582 4.54785 -10.1582 10.1582v5.0791c0 1.95215 0.563477 3.86426 1.62109 5.50488l70.0918 108.692
c1.87012 2.90137 5.08594 4.6543 8.53711 4.6543h8.125c5.6123 0 10.1592 -4.54883 10.1592 -10.1592v-95.4863h19.2998zM172.855 184.31l1.06348 0.00878906l28.5449 0.00195312v45.9922zM322.333 291.997c36.4111 0 57.293 -21.1045 57.293 -57.9023v-67.0439
c0 -36.7988 -20.8818 -57.9023 -57.293 -57.9023s-57.293 21.1055 -57.293 57.9023v67.0439c0 36.7979 20.8818 57.9023 57.293 57.9023zM322.943 137.188c20.2891 0 27.833 8.64355 27.833 31.8965v62.9805c0 23.252 -7.54297 31.8965 -27.833 31.8965h-1.21875
c-20.29 0 -27.833 -8.64453 -27.833 -31.8965v-62.9805c0 -23.2529 7.54297 -31.8965 27.833 -31.8965h1.21875zM300.695 23.5938c11.2197 0 20.3164 -9.09473 20.3164 -20.3174c0 -11.2197 -9.09668 -20.3164 -20.3164 -20.3164h-89.3906
c-11.2197 0 -20.3164 9.09668 -20.3164 20.3164c0 11.2207 9.09668 20.3174 20.3164 20.3174h89.3906z" />
    <glyph glyph-name="uniF102" unicode="&#xf102;" 
d="M495.89 371.702c10.9766 -2.32715 17.9902 -13.1094 15.665 -24.0879l-67.7236 -319.656c-1.98926 -9.38965 -10.2783 -16.1064 -19.876 -16.1064h-335.91c-9.59766 0 -17.8867 6.7168 -19.876 16.1064l-67.7236 319.656
c-2.32715 10.9785 4.68848 21.7607 15.665 24.0879c10.9834 2.32617 21.7617 -4.6875 24.0869 -15.6641l5.75586 -27.1709c13.7012 -1.20703 22.4385 -4.16113 30.3379 -6.84668c8.62793 -2.93457 15.4424 -5.25 30.709 -5.25c15.2627 0 22.0771 2.31738 30.7051 5.25
c10.2217 3.47559 21.8066 7.41309 43.7891 7.41309s33.5664 -3.93945 43.7881 -7.41309c8.62793 -2.93457 15.4434 -5.25 30.708 -5.25c15.2676 0 22.084 2.31543 30.7129 5.25c10.2197 3.47363 21.8047 7.41113 43.7881 7.41113
c21.9824 0 33.5674 -3.9375 43.7881 -7.41113c8.63086 -2.93457 15.4482 -5.25 30.7158 -5.25s22.083 2.31543 30.7129 5.25c7.90039 2.68555 16.6367 5.63965 30.3389 6.84668l5.75586 27.1709c2.3252 10.9756 13.0957 17.9922 24.0869 15.6641zM407.491 52.4863
l49.5059 233.67c-2.78027 -0.766602 -5.40234 -1.65332 -8.21289 -2.61035c-10.2207 -3.47363 -21.8057 -7.41113 -43.7891 -7.41113c-21.9844 0 -33.5703 3.93848 -43.792 7.41309c-8.62891 2.93262 -15.4463 5.25 -30.7119 5.25
c-15.2666 0 -22.082 -2.31738 -30.7109 -5.25c-10.2217 -3.47559 -21.8066 -7.41309 -43.79 -7.41309c-21.9814 0 -33.5664 3.93848 -43.7871 7.41309c-8.62793 2.93262 -15.4424 5.25 -30.709 5.25c-15.2656 0 -22.082 -2.31738 -30.71 -5.25195
c-10.2207 -3.47363 -21.8027 -7.41113 -43.7842 -7.41113c-21.9824 0 -33.5674 3.93848 -43.7881 7.41309c-2.81055 0.955078 -5.43164 1.84277 -8.21094 2.6084l49.5078 -233.67h302.982zM237.291 173.218c10.9775 -8.81836 16.9805 -21.8262 16.9805 -37.7021v-3.04785
c0 -30.7422 -24.6455 -52.2129 -59.9355 -52.2129c-38.0879 0 -59.9326 22.2158 -59.9326 60.9492v2.03223c0 5.61035 4.54688 10.1582 10.1582 10.1582h8.12695c5.6123 0 10.1592 -4.54785 10.1592 -10.1582c0 -31.3223 17.3906 -34.9443 30.4727 -34.9443h2.03125
c5.02148 0 30.0684 1.14551 30.0684 23.7695v3.04785c0 21.8203 -19.3213 24.1758 -27.6289 24.1758h-23.7695c-5.61133 0 -10.1582 4.54883 -10.1582 10.1592v7.71973c0 5.61035 4.54688 10.1592 10.1582 10.1592h22.7539c12.6035 0 27.6289 3.73535 27.6289 21.5342
v1.42285c0 15.5195 -10.8604 24.7852 -29.0527 24.7852h-2.03125c-18.6553 0 -29.457 -6.04883 -29.457 -36.9746c0 -5.61035 -4.54688 -10.1582 -10.1592 -10.1582h-8.12598c-5.6123 0 -10.1592 4.54785 -10.1592 10.1582v5.0791c0 38.6504 20.9238 59.9346 58.917 59.9346
c35.792 0 58.9199 -20.3359 58.9199 -51.8076v-2.84375c0 -14.7979 -5.63574 -26.9365 -15.9648 -35.2354zM320.303 263.104c36.4111 0 57.293 -21.1045 57.293 -57.9023v-67.0439c0 -36.7988 -20.8818 -57.9023 -57.293 -57.9023s-57.293 21.1035 -57.293 57.9023v67.0439
c0 36.7979 20.8818 57.9023 57.293 57.9023zM348.745 140.189v62.9805c0 23.2529 -7.54297 31.8975 -27.833 31.8975h-1.21875c-20.29 0 -27.834 -8.64648 -27.834 -31.8975v-62.9805c0 -23.252 7.54395 -31.8965 27.834 -31.8965h1.21875
c20.29 0 27.833 8.64453 27.833 31.8965z" />
    <glyph glyph-name="uniF113" unicode="&#xf113;" 
d="M256 448c141.158 0 256 -114.842 256 -256s-114.842 -256 -256 -256s-256 114.842 -256 256s114.842 256 256 256zM256 -12.7998c112.929 0 204.8 91.873 204.8 204.8s-91.8711 204.8 -204.8 204.8s-204.8 -91.873 -204.8 -204.8s91.8711 -204.8 204.8 -204.8z
M282.24 324.936l76.1533 -254.921c0.696289 -1.87109 1.07617 -3.89844 1.07617 -6.0127c0 -9.52344 -7.7168 -17.2412 -17.2383 -17.2412c-0.0126953 -0.00195312 -0.0224609 0 -0.0341797 0h-14.2578c-7.62207 0 -14.3379 5.00586 -16.5186 12.3086l-16.7412 56.0645
h-77.626l-16.4551 -55.9932c-2.15625 -7.33984 -8.89062 -12.3799 -16.54 -12.3799h-14.2568c-5.44629 0 -10.5732 2.57227 -13.8262 6.94141c-3.25488 4.36719 -4.25293 10.0146 -2.69434 15.2334l76.4766 256c2.18359 7.30078 8.89941 12.3047 16.5195 12.3047h19.4434
c7.62207 0 14.3379 -5.00391 16.5195 -12.3047zM230.83 161.931h50.0615l-24.9463 84.4453z" />
    <glyph glyph-name="uniF127" unicode="&#xf127;" 
d="M511.331 78.4141c0.4375 -1.6084 0.668945 -3.2998 0.667969 -5.0459c0 -10.6025 -8.59473 -19.1992 -19.1992 -19.1992c-0.00878906 0.00195312 -0.0195312 0.00195312 -0.0253906 0h-473.578c-6.67578 0 -12.8711 3.46777 -16.3623 9.15723
c-3.49316 5.68945 -3.77734 12.7832 -0.755859 18.7354c0.761719 1.49902 19.041 37.1006 54.4219 72.8359c47.7471 48.2236 104.112 73.7129 163.002 73.7129h221.174l-12.1357 62.8223h-198.317c-10.6025 0 -19.1992 8.59668 -19.1992 19.1992
s8.59668 19.1992 19.1992 19.1992h214.163c9.2002 0 17.1064 -6.52539 18.8516 -15.5576l21.2852 -110.188zM54.0088 92.5674h415.04l-20.8311 97.6455h-228.715c-48.7754 0 -94.1748 -20.708 -134.938 -61.5488c-12.5957 -12.6201 -22.8174 -25.3506 -30.5566 -36.0967z
" />
    <glyph glyph-name="uniF123" unicode="&#xf123;" 
d="M512 313.271v-0.0175781v-357.562c0 -10.876 -8.81641 -19.6924 -19.6924 -19.6924h-472.615c-10.875 0 -19.6924 8.81641 -19.6924 19.6924v357.562v0.0175781v115.036c0 10.876 8.81738 19.6924 19.6924 19.6924h472.615c10.876 0 19.6924 -8.81641 19.6924 -19.6924
v-115.036zM472.615 408.615h-433.23v-87.7461c40.6904 -43.4453 124.557 -71.2207 216.615 -71.2207s175.925 27.7754 216.615 71.2207v87.7461zM39.3848 -24.6152h433.23v293.8c-19.082 -13.502 -41.959 -25.1709 -67.8848 -34.5059
c-44.3574 -15.9717 -95.7881 -24.415 -148.73 -24.415s-104.373 8.44336 -148.73 24.415c-25.9258 9.33496 -48.8027 21.0039 -67.8848 34.5059v-293.8z" />
    <glyph glyph-name="uniF11F" unicode="&#xf11f;" 
d="M256 -4.92285c-108.583 0 -196.923 88.3398 -196.923 196.923s88.3398 196.923 196.923 196.923s196.923 -88.3398 196.923 -196.923s-88.3398 -196.923 -196.923 -196.923zM256 349.538c-86.8672 0 -157.538 -70.6709 -157.538 -157.538
s70.6709 -157.538 157.538 -157.538s157.538 70.6709 157.538 157.538s-70.6709 157.538 -157.538 157.538zM492.308 448c10.876 0 19.6924 -8.81641 19.6924 -19.6924v-472.615c0 -10.876 -8.81641 -19.6924 -19.6924 -19.6924h-472.615
c-10.875 0 -19.6924 8.81641 -19.6924 19.6924v472.615c0 10.876 8.81738 19.6924 19.6924 19.6924h472.615zM472.615 -24.6152v433.23h-433.23v-433.23h433.23zM144.41 192c0 21.8802 10.9401 32.8203 32.8203 32.8203c21.8809 0 32.8213 -10.9401 32.8213 -32.8203
s-10.9404 -32.8203 -32.8213 -32.8203c-21.8802 0 -32.8203 10.9401 -32.8203 32.8203zM223.18 192c0 21.8802 10.9401 32.8203 32.8203 32.8203c21.8802 0 32.8203 -10.9401 32.8203 -32.8203s-10.9401 -32.8203 -32.8203 -32.8203
c-21.8802 0 -32.8203 10.9401 -32.8203 32.8203zM301.949 192c0 21.8802 10.9401 32.8203 32.8203 32.8203s32.8203 -10.9401 32.8203 -32.8203s-10.9401 -32.8203 -32.8203 -32.8203s-32.8203 10.9401 -32.8203 32.8203z" />
    <glyph glyph-name="uniF10C" unicode="&#xf10c;" 
d="M245.128 289.965c5.61133 0 10.1582 -4.54785 10.1592 -10.1572v-5.0791c0 -1.3125 -0.253906 -2.61133 -0.749023 -3.82617l-62.3721 -153.389c-1.55566 -3.82812 -5.27637 -6.33301 -9.40918 -6.33301h-8.73535c-3.38086 0 -6.53906 1.68262 -8.42773 4.48633
c-1.8877 2.80566 -2.25586 6.36328 -0.984375 9.49609l55.4199 136.433l-8.53906 -0.0732422l-45.5967 -0.000976562v-38.6006c0 -5.60938 -4.54688 -10.1582 -10.1582 -10.1582h-8.125c-5.61133 0 -10.1582 4.54883 -10.1582 10.1582v56.8857
c0 5.61035 4.54688 10.1582 10.1582 10.1582h97.5176zM317.254 291.997c36.4102 0 57.293 -21.1045 57.293 -57.9023v-67.0439c0 -36.7988 -20.8828 -57.9023 -57.293 -57.9023c-36.4111 0 -57.293 21.1055 -57.293 57.9023v67.0439
c0 36.7979 20.8818 57.9023 57.293 57.9023zM317.865 137.188c20.2891 0 27.832 8.64355 27.834 31.8965v62.9805c0 23.252 -7.54492 31.8965 -27.834 31.8965h-1.21875c-20.29 0 -27.833 -8.64453 -27.833 -31.8965v-62.9805c0 -23.2529 7.54492 -31.8965 27.833 -31.8965
h1.21875zM495.89 400.595c10.9766 -2.3252 17.9902 -13.1104 15.665 -24.0869l-67.7236 -319.656c-1.98926 -9.38867 -10.2783 -16.1055 -19.876 -16.1055h-335.91c-9.59766 0 -17.8867 6.7168 -19.876 16.1055l-67.7236 319.656
c-2.32715 10.9766 4.68848 21.7617 15.665 24.0869c10.9883 2.32324 21.7637 -4.6875 24.0869 -15.665l5.75586 -27.1699c13.7012 -1.20703 22.4385 -4.16113 30.3379 -6.84766c8.62793 -2.93359 15.4424 -5.25 30.709 -5.25c15.2627 0 22.0771 2.31641 30.7051 5.25
c10.2217 3.47559 21.8066 7.41309 43.7891 7.41309s33.5664 -3.93848 43.7881 -7.41309c8.62793 -2.93359 15.4434 -5.25 30.708 -5.25c15.2676 0 22.084 2.31641 30.7129 5.25c10.2197 3.47461 21.8047 7.41211 43.7881 7.41211
c21.9824 0 33.5674 -3.9375 43.7881 -7.41211c8.63086 -2.93359 15.4482 -5.25 30.7158 -5.25s22.083 2.31641 30.7129 5.25c7.90039 2.68652 16.6367 5.64062 30.3389 6.84766l5.75586 27.1699c2.3252 10.9756 13.0928 17.9922 24.0869 15.665zM407.491 81.3799
l49.5059 233.667c-2.78027 -0.766602 -5.40234 -1.65332 -8.21289 -2.60938c-10.2207 -3.47461 -21.8057 -7.41211 -43.7891 -7.41211c-21.9844 0 -33.5703 3.93945 -43.792 7.41309c-8.62891 2.93359 -15.4463 5.25 -30.7119 5.25
c-15.2666 0 -22.082 -2.31641 -30.7109 -5.25c-10.2217 -3.47559 -21.8066 -7.41309 -43.79 -7.41309c-21.9814 0 -33.5664 3.93945 -43.7871 7.41309c-8.62793 2.93359 -15.4424 5.25 -30.709 5.25c-15.2656 0 -22.082 -2.31641 -30.71 -5.25
c-10.2207 -3.47363 -21.8027 -7.41113 -43.7842 -7.41113c-21.9824 0 -33.5674 3.93848 -43.7881 7.41309c-2.81055 0.954102 -5.43164 1.84277 -8.21094 2.6084l49.5078 -233.669h302.982zM300.695 23.5938c11.2197 0 20.3164 -9.09473 20.3164 -20.3174
c0 -11.2197 -9.09668 -20.3164 -20.3164 -20.3164h-89.3906c-11.2197 0 -20.3164 9.09668 -20.3164 20.3164c0 11.2207 9.09668 20.3174 20.3164 20.3174h89.3906z" />
    <glyph glyph-name="uniF11D" unicode="&#xf11d;" 
d="M492.308 -64h-472.615c-10.875 0 -19.6924 8.81641 -19.6924 19.6924v472.615c0 10.876 8.81738 19.6924 19.6924 19.6924h472.615c10.874 0 19.6924 -8.81641 19.6924 -19.6924v-472.615c0 -10.876 -8.81836 -19.6924 -19.6924 -19.6924zM39.3848 -24.6152h433.23
v433.23h-433.23v-433.23zM150.975 61.0518c-10.876 0 -19.6924 8.81641 -19.6924 19.6924v222.512c0 10.876 8.81641 19.6924 19.6924 19.6924c10.875 0 19.6924 -8.81641 19.6924 -19.6924v-222.512c0 -10.876 -8.81738 -19.6924 -19.6924 -19.6924zM256 61.0518
c-10.875 0 -19.6924 8.81641 -19.6924 19.6924v222.512c0 10.876 8.81738 19.6924 19.6924 19.6924s19.6924 -8.81641 19.6924 -19.6924v-222.512c0 -10.876 -8.81738 -19.6924 -19.6924 -19.6924zM361.025 61.0518c-10.875 0 -19.6924 8.81641 -19.6924 19.6924v222.512
c0 10.876 8.81738 19.6924 19.6924 19.6924c10.876 0 19.6924 -8.81641 19.6924 -19.6924v-222.512c0 -10.876 -8.81641 -19.6924 -19.6924 -19.6924z" />
  </font>
</defs>
</svg>
